<?xml version="1.0" standalone="no"?>
<!DOCTYPE svg PUBLIC "-//W3C//DTD SVG 1.1//EN" "http://www.w3.org/Graphics/SVG/1.1/DTD/svg11.dtd" >
<svg xmlns="http://www.w3.org/2000/svg">
<metadata>Generated by IcoMoon</metadata>
<defs>
<font id="basicons" horiz-adv-x="1024">
<font-face units-per-em="1024" ascent="960" descent="-64" />
<missing-glyph horiz-adv-x="1024" />
<glyph unicode="&#x20;" horiz-adv-x="512" d="" />
<glyph unicode="&#xe900;" glyph-name="01" d="M512 823.47c-75.397 0-136.53-61.133-136.53-136.53 0-38.339 15.933-72.899 41.4-97.7l-107.5-188.099 59.331-33.772 107.633 188.334c11.438-3.103 23.235-5.304 35.666-5.304 75.397 0 136.53 61.143 136.53 136.54s-61.133 136.53-136.53 136.53zM512 618.67c-37.704 0-68.27 30.566-68.27 68.27s30.566 68.26 68.27 68.26 68.27-30.556 68.27-68.26-30.566-68.27-68.27-68.27zM370.627 243.2c-15.227 58.767-68.157 102.4-131.697 102.4-75.397 0-136.53-61.133-136.53-136.53s61.133-136.54 136.53-136.54c63.539 0 116.47 43.643 131.697 102.4h212.695v68.27h-212.695zM238.93 140.8c-37.704 0-68.26 30.566-68.26 68.27s30.556 68.26 68.26 68.26 68.27-30.556 68.27-68.26-30.566-68.27-68.27-68.27zM785.070 345.6c-12.442 0-24.238-2.202-35.666-5.304l-107.633 188.344-59.341-33.772 107.5-188.099c-25.457-24.801-41.4-59.341-41.4-97.7 0-75.397 61.143-136.54 136.54-136.54s136.53 61.143 136.53 136.54-61.133 136.53-136.53 136.53zM785.070 140.8c-37.704 0-68.27 30.566-68.27 68.27s30.566 68.26 68.27 68.26 68.26-30.556 68.26-68.26-30.556-68.27-68.26-68.27z" />
<glyph unicode="&#xe901;" glyph-name="02" d="M238.93 686.93c0-37.724-30.525-68.27-68.26-68.27-37.745 0-68.27 30.546-68.27 68.27s30.525 68.27 68.27 68.27c37.734 0 68.26-30.546 68.26-68.27zM921.6 686.93c0-37.705-30.566-68.27-68.27-68.27s-68.27 30.566-68.27 68.27c0 37.705 30.566 68.27 68.27 68.27s68.27-30.566 68.27-68.27zM238.93 209.060c0-37.724-30.525-68.26-68.26-68.26-37.745 0-68.27 30.536-68.27 68.26 0 37.745 30.525 68.28 68.27 68.28 37.734 0 68.26-30.536 68.26-68.28zM921.6 209.060c0-37.724-30.566-68.26-68.27-68.26s-68.26 30.536-68.26 68.26c0 37.745 30.556 68.28 68.26 68.28s68.27-30.536 68.27-68.28zM307.2 721.070h409.6v-68.27h-409.6v68.27zM307.2 243.2h409.6v-68.26h-409.6v68.26zM136.53 550.4h68.27v-204.8h-68.27v204.8zM819.2 550.4h68.27v-204.8h-68.27v204.8z" />
<glyph unicode="&#xe902;" glyph-name="04" d="M443.73 857.6h-307.2c-18.76 0-34.13-15.36-34.13-34.13v-375.47c0-18.77 15.37-34.13 34.13-34.13h307.2c18.77 0 34.14 15.36 34.14 34.13v375.47c0 18.77-15.37 34.13-34.14 34.13zM409.6 482.13h-238.93v307.2h238.93v-307.2zM887.47 482.13h-307.2c-18.77 0-34.14-15.36-34.14-34.13v-375.47c0-18.76 15.37-34.13 34.14-34.13h307.2c18.76 0 34.13 15.37 34.13 34.13v375.47c0 18.77-15.37 34.13-34.13 34.13zM853.33 106.67h-238.93v307.2h238.93v-307.2zM443.73 345.6h-307.2c-18.76 0-34.13-15.37-34.13-34.13v-238.94c0-18.76 15.37-34.13 34.13-34.13h307.2c18.77 0 34.14 15.37 34.14 34.13v238.94c0 18.76-15.37 34.13-34.14 34.13zM409.6 106.67h-238.93v170.66h238.93v-170.66zM887.47 857.6h-307.2c-18.77 0-34.14-15.36-34.14-34.13v-238.93c0-18.76 15.37-34.13 34.14-34.13h307.2c18.76-0.010 34.13 15.36 34.13 34.12v238.94c0 18.77-15.37 34.13-34.13 34.13zM853.33 618.67h-238.93v170.66h238.93v-170.66z" />
<glyph unicode="&#xe903;" glyph-name="05" d="M443.73 857.6h-307.2c-18.76 0-34.13-15.36-34.13-34.14v-750.93c0-18.76 15.37-34.13 34.13-34.13h307.2c18.77 0 34.14 15.37 34.14 34.13v750.93c0 18.78-15.37 34.14-34.14 34.14zM409.6 106.67h-238.93v682.67h238.93v-682.67zM887.47 857.6h-307.2c-18.77 0-34.14-15.36-34.14-34.14v-307.2c0-18.76 15.37-34.12 34.14-34.12h307.2c18.76 0 34.13 15.36 34.13 34.12v307.2c0 18.78-15.37 34.14-34.13 34.14zM853.33 550.4h-238.93v238.94h238.93v-238.94zM887.47 413.86h-307.2c-18.77 0-34.14-15.36-34.14-34.12v-307.21c0-18.76 15.37-34.13 34.14-34.13h307.2c18.76 0 34.13 15.37 34.13 34.13v307.21c0 18.76-15.37 34.12-34.13 34.12zM853.33 106.67h-238.93v238.93h238.93v-238.93z" />
<glyph unicode="&#xe904;" glyph-name="06" d="M295.803 857.6h-159.273c-18.76 0-34.13-15.36-34.13-34.13v-409.6c0-18.77 15.37-34.14 34.13-34.14h159.273c18.801 0 34.13 15.37 34.13 34.14v409.6c0 18.77-15.329 34.13-34.13 34.13zM261.673 448h-91.003v341.33h91.003v-341.33zM295.803 311.47h-159.273c-18.76 0-34.13-15.37-34.13-34.14v-204.8c0-18.76 15.37-34.13 34.13-34.13h159.273c18.801 0 34.13 15.37 34.13 34.13v204.8c0 18.77-15.329 34.14-34.13 34.14zM261.673 106.67h-91.003v136.53h91.003v-136.53zM887.47 857.6h-159.273c-18.77 0-34.13-15.36-34.13-34.13v-409.6c0-18.77 15.36-34.14 34.13-34.14h159.273c18.76 0 34.13 15.37 34.13 34.14v409.6c0 18.77-15.37 34.13-34.13 34.13zM853.33 448h-91.003v341.33h91.003v-341.33zM887.47 311.47h-159.273c-18.77 0-34.13-15.37-34.13-34.14v-204.8c0-18.76 15.36-34.13 34.13-34.13h159.273c18.76 0 34.13 15.37 34.13 34.13v204.8c0 18.77-15.37 34.14-34.13 34.14zM853.33 106.67h-91.003v136.53h91.003v-136.53zM591.626 516.27h-159.252c-18.77 0-34.14-15.37-34.14-34.14v-409.6c0-18.76 15.37-34.13 34.14-34.13h159.263c18.77 0 34.14 15.37 34.14 34.13v409.6c-0.010 18.77-15.38 34.14-34.15 34.14zM557.496 106.67h-91.003v341.33h91.003v-341.33zM591.626 857.6h-159.252c-18.77 0-34.14-15.36-34.14-34.13v-204.8c0-18.77 15.37-34.14 34.14-34.14h159.263c18.77 0 34.14 15.37 34.14 34.14v204.8c-0.010 18.77-15.38 34.13-34.15 34.13zM557.496 652.8h-91.003v136.53h91.003v-136.53z" />
<glyph unicode="&#xe905;" glyph-name="07" d="M688.2 413.86c14.766-49.224 59.904-85.32 113.93-85.32 65.997 0 119.47 53.463 119.47 119.46 0 65.966-53.473 119.47-119.47 119.47-54.026 0-99.133-36.127-113.93-85.33h-179.272c-3.4 20.101-9.656 39.168-18.463 56.832l147.128 106.885c20.572-16.732 46.428-27.187 74.998-27.187 65.997 0 119.47 53.473 119.47 119.47 0.010 65.956-53.463 119.46-119.46 119.46-65.966 0-119.47-53.504-119.47-119.47 0-12.554 2.468-24.422 6.072-35.789l-148.808-108.073c-36.925 36.168-87.398 58.532-143.196 58.532-113.101 0-204.8-91.699-204.8-204.8 0-113.142 91.699-204.8 204.8-204.8 55.798 0 106.301 22.364 143.227 58.542l148.767-108.083c-3.604-11.356-6.072-23.224-6.072-35.799 0.010-65.997 53.504-119.46 119.48-119.46 65.997 0 119.47 53.463 119.47 119.46 0 65.976-53.473 119.48-119.47 119.48-28.57 0-54.467-10.476-74.998-27.197l-147.139 106.895c8.796 17.623 15.063 36.721 18.463 56.822h179.272zM802.13 499.2c28.242 0 51.2-22.968 51.2-51.2 0-28.242-22.958-51.2-51.2-51.2-28.232 0-51.2 22.958-51.2 51.2 0 28.232 22.968 51.2 51.2 51.2zM712.602 789.33c28.232 0 51.2-22.968 51.2-51.2s-22.968-51.2-51.2-51.2-51.2 22.968-51.2 51.2c0 28.232 22.968 51.2 51.2 51.2zM307.2 311.46c-75.274 0-136.53 61.235-136.53 136.54 0 75.264 61.256 136.53 136.53 136.53s136.53-61.266 136.53-136.53c0-75.305-61.256-136.54-136.53-136.54zM712.602 209.060c28.232 0 51.2-22.958 51.2-51.2 0-28.221-22.968-51.2-51.2-51.2s-51.2 22.979-51.2 51.2c0 28.242 22.968 51.2 51.2 51.2z" />
<glyph unicode="&#xe906;" glyph-name="08" d="M818.934 419.144c-2.427 159.457-114.227 292.229-263.731 326.922-17.070 45.138-60.375 77.404-111.473 77.404-60.805 0-110.428-45.599-117.934-104.346-112.097-55.982-189.266-171.479-189.266-305.254 0-50.719 11.366-98.703 31.201-141.957-19.2-21.197-31.201-49.039-31.201-79.903 0-65.935 53.504-119.46 119.47-119.46 30.874 0 58.696 12.022 79.903 31.222 43.274-19.855 91.228-31.222 141.967-31.222 105.431 0 199.7 47.903 262.298 123.064 8.96-2.171 18.207-3.615 27.832-3.615 65.966 0 119.47 53.545 119.47 119.46 0 47.677-28.14 88.504-68.536 107.684zM443.73 755.2c28.242 0 51.2-22.968 51.2-51.2s-22.958-51.2-51.2-51.2c-28.232 0-51.2 22.968-51.2 51.2s22.968 51.2 51.2 51.2zM256 140.8c-28.232 0-51.2 22.958-51.2 51.2s22.968 51.2 51.2 51.2 51.2-22.958 51.2-51.2-22.968-51.2-51.2-51.2zM680.233 231.004c-49.961-55.265-122.030-90.204-202.363-90.204-37.796 0-73.8 7.7-106.537 21.596 2.437 9.503 4.137 19.343 4.137 29.604 0 65.956-53.504 119.46-119.47 119.46-10.271 0-20.070-1.7-29.604-4.116-13.896 32.717-21.596 68.721-21.596 106.516 0 99.84 53.801 186.941 133.796 234.578 20.070-37.837 59.331-63.898 105.134-63.898 55.767 0 102.236 38.4 115.405 90.102 106.445-33.167 184.596-129.772 191.037-245.494-57.436-8.684-101.642-57.805-101.642-117.678 0-31.109 12.196-59.208 31.703-80.466zM768 260.26c-28.232 0-51.2 22.979-51.2 51.2 0 28.242 22.968 51.2 51.2 51.2s51.2-22.958 51.2-51.2c0-28.221-22.968-51.2-51.2-51.2z" />
<glyph unicode="&#xe907;" glyph-name="09" d="M785.070 311.46c-37.601 0-71.598-15.196-96.297-39.803l-158.566 94.003c10.168 25.477 15.933 53.197 15.933 82.34 0 29.133-5.765 56.863-15.964 82.34l158.597 94.003c24.699-24.596 58.696-39.803 96.297-39.803 75.428-0.010 136.53 61.092 136.53 136.53 0 75.397-61.102 136.53-136.53 136.53-75.397 0-136.54-61.133-136.54-136.53 0-13.199 2.468-25.661 5.939-37.734l-158.996-94.198c-40.673 49.295-102.267 80.732-171.203 80.732-122.542 0-221.87-99.338-221.87-221.87 0-122.563 99.328-221.86 221.87-221.86 68.925 0 130.529 31.416 171.203 80.722l158.996-94.218c-3.471-12.042-5.939-24.535-5.939-37.704 0-75.438 61.143-136.54 136.54-136.54 75.428 0 136.53 61.102 136.53 136.54 0 75.397-61.102 136.52-136.53 136.52zM785.070 789.33c37.632 0 68.26-30.618 68.26-68.27 0-37.663-30.628-68.27-68.26-68.27-37.642 0.010-68.27 30.607-68.27 68.28 0 37.642 30.628 68.26 68.27 68.26zM324.27 294.4c-84.695 0-153.6 68.905-153.6 153.6s68.905 153.6 153.6 153.6 153.6-68.905 153.6-153.6-68.905-153.6-153.6-153.6zM785.070 106.66c-37.642 0-68.27 30.638-68.27 68.28 0 37.622 30.628 68.26 68.27 68.26 37.632 0 68.26-30.638 68.26-68.26 0-37.642-30.628-68.28-68.26-68.28z" />
<glyph unicode="&#xe908;" glyph-name="Abstract, figure, b" d="M221.87 204.196v409.006l290.099 165.765 290.171-165.765v-330.373l-290.171-165.796-153.569 87.767v329.175l153.569 87.757 153.631-87.757v-171.909l-153.631-87.767-17.029 9.728v170.701l85.832 49.070-68.803 39.301-85.299-48.773v-249.897l85.299-48.763 221.901 126.802v251.105l-221.901 126.761-221.829-126.761v-408.371l221.829-126.802 358.431 204.8v409.6l-358.431 204.8-358.369-204.8v-409.6z" />
<glyph unicode="&#xe909;" glyph-name="Abstract2, figure2, circle, rectangle, b2" d="M238.93 857.6c-56.535 0-102.4-45.865-102.4-102.4 0-56.566 45.865-102.4 102.4-102.4s102.4 45.834 102.4 102.4c0 56.535-45.865 102.4-102.4 102.4zM238.93 721.070c-18.862 0-34.13 15.268-34.13 34.13 0 18.831 15.268 34.13 34.13 34.13 18.872 0 34.14-15.299 34.14-34.13 0-18.862-15.268-34.13-34.14-34.13zM512 857.6c-56.535 0-102.4-45.865-102.4-102.4 0-56.566 45.865-102.4 102.4-102.4s102.4 45.834 102.4 102.4c0 56.535-45.865 102.4-102.4 102.4zM512 721.070c-18.872 0-34.13 15.268-34.13 34.13 0 18.831 15.258 34.13 34.13 34.13s34.13-15.299 34.13-34.13c0-18.862-15.258-34.13-34.13-34.13zM785.070 857.6c-56.535 0-102.4-45.865-102.4-102.4 0-56.566 45.865-102.4 102.4-102.4s102.4 45.834 102.4 102.4c0 56.535-45.865 102.4-102.4 102.4zM785.070 721.070c-18.872 0-34.14 15.268-34.14 34.13 0 18.831 15.268 34.13 34.14 34.13 18.862 0 34.13-15.299 34.13-34.13 0-18.862-15.268-34.13-34.13-34.13zM819.2 584.53h-614.4c-37.53 0-68.27-30.73-68.27-68.27v-409.6c0-37.53 30.74-68.26 68.27-68.26h614.4c37.53 0 68.27 30.73 68.27 68.27v409.6c0 37.53-30.74 68.26-68.27 68.26zM819.2 106.67h-614.4v409.6h614.4v-409.6z" />
<glyph unicode="&#xe90a;" glyph-name="Abstract3, figure3, circle2, rectangle2" d="M614.4 823.47h-477.87c-18.76 0-34.13-15.37-34.13-34.13v-136.54c0-18.76 15.37-34.13 34.13-34.13h477.87c18.77 0 34.13 15.37 34.13 34.13v136.54c0 18.76-15.36 34.13-34.13 34.13zM580.27 686.94h-409.6v68.26h409.6v-68.26zM819.2 823.47c-56.535 0-102.4-45.865-102.4-102.4s45.865-102.4 102.4-102.4 102.4 45.865 102.4 102.4-45.865 102.4-102.4 102.4zM819.2 686.94c-18.831 0-34.13 15.299-34.13 34.13 0 18.801 15.299 34.13 34.13 34.13s34.13-15.329 34.13-34.13c0-18.831-15.299-34.13-34.13-34.13zM409.6 345.6h477.87c18.76 0 34.13 15.37 34.13 34.13v136.54c0 18.77-15.37 34.13-34.13 34.13h-477.87c-18.77 0-34.13-15.36-34.13-34.13v-136.54c0-18.76 15.36-34.13 34.13-34.13zM443.73 482.14h409.6v-68.27h-409.6v68.27zM204.8 345.6c56.535 0 102.4 45.865 102.4 102.4s-45.865 102.4-102.4 102.4-102.4-45.865-102.4-102.4c0-56.535 45.865-102.4 102.4-102.4zM204.8 482.14c18.831 0 34.13-15.34 34.13-34.14 0-18.831-15.299-34.13-34.13-34.13s-34.13 15.299-34.13 34.13c0 18.801 15.299 34.14 34.13 34.14zM614.4 277.33h-477.87c-18.76 0-34.13-15.36-34.13-34.13v-136.53c0-18.77 15.37-34.14 34.13-34.14h477.87c18.77 0 34.13 15.37 34.13 34.14v136.53c0 18.77-15.36 34.13-34.13 34.13zM580.27 140.8h-409.6v68.27h409.6v-68.27zM819.2 277.33c-56.535 0-102.4-45.865-102.4-102.4s45.865-102.4 102.4-102.4 102.4 45.865 102.4 102.4c0 56.535-45.865 102.4-102.4 102.4zM819.2 140.8c-18.831 0-34.13 15.329-34.13 34.13s15.299 34.14 34.13 34.14 34.13-15.34 34.13-34.14-15.299-34.13-34.13-34.13z" />
<glyph unicode="&#xe90b;" glyph-name="Abstract4, figure4, circles, b3" d="M512 857.6h-409.6v-409.6c0-226.202 183.398-409.6 409.6-409.6h409.6v409.6c0 226.202-183.398 409.6-409.6 409.6zM853.33 106.67h-341.33c-188.201 0-341.33 153.129-341.33 341.33v341.33h341.33c188.201 0 341.33-153.139 341.33-341.33v-341.33zM512 721.070c-150.804 0-273.070-122.266-273.070-273.070s122.266-273.070 273.070-273.070 273.070 122.266 273.070 273.070-122.266 273.070-273.070 273.070zM512 243.2c-113.132 0-204.8 91.699-204.8 204.8s91.668 204.8 204.8 204.8c113.101 0 204.8-91.699 204.8-204.8s-91.699-204.8-204.8-204.8zM512 584.53c-75.397 0-136.53-61.133-136.53-136.53s61.133-136.53 136.53-136.53 136.53 61.133 136.53 136.53-61.133 136.53-136.53 136.53zM512 379.73c-37.704 0-68.27 30.566-68.27 68.27s30.566 68.27 68.27 68.27 68.27-30.566 68.27-68.27-30.566-68.27-68.27-68.27z" />
<glyph unicode="&#xe90c;" glyph-name="Abstract5, figure5, circles2, lines" d="M546.13 857.6v-68.526c172.544-17.203 307.2-163.338 307.2-341.074 0-177.705-134.656-323.83-307.2-341.033v-68.567c210.237 17.428 375.47 194.028 375.47 409.6 0 215.603-165.233 392.131-375.47 409.6zM477.87 106.967c-172.472 17.203-307.2 163.328-307.2 341.033 0 177.725 134.728 323.871 307.2 341.074v68.526c-210.196-17.469-375.47-193.997-375.47-409.6 0-215.572 165.274-392.172 375.47-409.6v68.567zM310.272 482.13c16.261 96.84 100.26 170.67 201.728 170.67s185.467-73.83 201.728-170.67h68.966c-16.794 134.666-131.42 238.94-270.694 238.94-139.203 0-253.87-104.274-270.705-238.94h68.977zM713.728 413.87c-16.261-96.799-100.26-170.67-201.728-170.67s-185.467 73.871-201.728 170.67h-68.966c16.824-134.666 131.492-238.94 270.694-238.94 139.274 0 253.901 104.274 270.705 238.94h-68.977zM512 584.53c-75.397 0-136.53-61.133-136.53-136.53s61.133-136.53 136.53-136.53c75.428 0 136.53 61.133 136.53 136.53s-61.102 136.53-136.53 136.53zM512 379.73c-37.704 0-68.27 30.566-68.27 68.27s30.566 68.27 68.27 68.27c37.734 0 68.27-30.566 68.27-68.27s-30.536-68.27-68.27-68.27z" />
<glyph unicode="&#xe90d;" glyph-name="Abstract6, figure6, circles3" d="M860.774 447.969c37.796 43.428 60.826 100.065 60.826 162.161 0 136.673-110.797 247.47-247.47 247.47-62.095 0-118.702-23.030-162.13-60.805-43.469 37.775-100.035 60.805-162.13 60.805-136.673 0-247.47-110.797-247.47-247.47 0-62.095 23.030-118.702 60.805-162.13-37.775-43.428-60.805-100.035-60.805-162.13 0-136.673 110.797-247.47 247.47-247.47 62.095 0 118.661 23.030 162.13 60.805 43.428-37.775 100.035-60.805 162.13-60.805 136.673 0 247.47 110.797 247.47 247.47 0 62.095-23.030 118.702-60.805 162.13l-0.020-0.031zM853.33 610.13c0-98.796-80.404-179.2-179.2-179.2-44.933 0-85.555 17.203-117.033 44.667 25.272 38.728 40.233 84.797 40.233 134.533s-14.797 95.939-40.028 134.697c31.427 27.372 71.997 44.503 116.828 44.503 98.796 0 179.2-80.404 179.2-179.2zM349.87 789.33c98.796 0 179.2-80.404 179.2-179.2 0-44.933-17.203-85.555-44.595-117.064-38.769 25.303-84.869 40.264-134.605 40.264s-95.939-14.797-134.738-40.059c-27.331 31.457-44.462 72.028-44.462 116.859 0 98.796 80.404 179.2 179.2 179.2zM170.67 285.87c0 98.796 80.404 179.2 179.2 179.2 44.933 0 85.555-17.203 117.064-44.636-25.303-38.758-40.264-84.828-40.264-134.564s14.797-95.939 40.059-134.697c-31.457-27.372-71.997-44.503-116.859-44.503-98.796 0-179.2 80.404-179.2 179.2zM674.13 106.67c-98.796 0-179.2 80.404-179.2 179.2 0 44.933 17.203 85.555 44.595 117.064 38.769-25.303 84.869-40.264 134.605-40.264s95.939 14.797 134.738 40.059c27.331-31.457 44.462-72.028 44.462-116.859 0-98.796-80.404-179.2-179.2-179.2z" />
<glyph unicode="&#xe90e;" glyph-name="Abstract7, figure7, line, b4" d="M418.099 38.4c-70.574 0-127.969 57.426-127.969 128 0 70.533 57.395 127.969 128 128h59.74v119.47h-247.47c-70.605 0-128 57.395-128 128s57.395 128 128 128h247.47v59.73c0 70.533 57.395 128 128 128 70.564 0 128-57.395 128-128s-57.436-128-128-128h-59.74v-119.47h247.47c70.574 0 128-57.395 128-128 0-70.564-57.426-128-128-128h-247.47v-59.73c0-70.574-57.426-128-128.031-128zM418.13 226.13c-32.932-0.031-59.73-26.829-59.73-59.73 0-32.932 26.767-59.73 59.699-59.73 32.973 0 59.771 26.798 59.771 59.73v59.73h-59.74zM546.13 294.4h247.47c32.932 0 59.73 26.798 59.73 59.73 0 32.942-26.798 59.74-59.73 59.74h-247.47v-119.47zM230.4 601.6c-32.932 0-59.73-26.798-59.73-59.73 0-32.942 26.798-59.74 59.73-59.74h247.47v119.47h-247.47zM546.13 669.87h59.74c32.932 0 59.73 26.798 59.73 59.73s-26.798 59.73-59.73 59.73c-32.942 0-59.74-26.798-59.74-59.73v-59.73z" />
<glyph unicode="&#xe90f;" glyph-name="Abstract8, figure8, line2" d="M752.026 38.4h-225.556c-74.67 0-135.404 60.774-135.404 135.434 0 25.242 6.861 49.367 19.661 70.339-24.904 5.499-47.729 18.002-66.13 36.465-52.726 52.767-52.767 138.701 0 191.498l113.367 114.596-186.040 0.041c-74.66 0-135.404 60.764-135.404 135.434s60.754 135.393 135.414 135.393h225.597c74.67 0 135.404-60.733 135.404-135.404 0-25.272-6.861-49.428-19.702-70.4 24.904-5.53 47.739-18.002 66.171-36.434 25.569-25.569 39.629-59.566 39.629-95.775 0-36.127-14.060-70.175-39.66-95.734l-113.377-114.627h186.030c74.67 0 135.444-60.733 135.444-135.404 0-74.65-60.774-135.424-135.444-135.424zM498.504 240.968l-19.374-19.569c-12.8-12.8-19.804-29.665-19.804-47.596 0-36.997 30.095-67.133 67.144-67.133h225.556c37.038 0 67.174 30.126 67.174 67.164s-30.126 67.144-67.174 67.144h-253.522zM553.974 586.732l-160.973-162.734c-26.266-26.327-26.266-68.925-0.072-95.13 12.595-12.667 29.399-19.64 47.34-19.64h29.727l160.973 162.775c12.831 12.8 19.804 29.665 19.804 47.596s-6.973 34.826-19.671 47.534c-12.626 12.636-29.471 19.599-47.432 19.599h-29.696zM271.933 789.33c-36.997 0-67.133-30.126-67.133-67.133 0-37.069 30.126-67.174 67.133-67.174l253.542-0.031 19.405 19.599c12.831 12.8 19.804 29.665 19.804 47.596 0 36.997-30.136 67.133-67.144 67.133h-225.608z" />
<glyph unicode="&#xe910;" glyph-name="Abstract9, figure9, lines2, b5" d="M512 737.628l119.931 119.972 48.302-48.302-119.962-119.931 144.824-144.835-48.261-48.261-313.108 313.057 48.302 48.271zM801.628 448l119.972-119.931-48.302-48.302-119.972 119.962-144.794-144.824-48.261 48.261 313.057 313.068 48.271-48.261zM512.031 158.372l-119.931-119.972-48.302 48.302 119.972 119.972-144.835 144.794 48.261 48.261 313.078-313.057-48.271-48.271zM222.372 448l-119.972 119.972 48.302 48.302 119.972-120.003 144.794 144.855 48.261-48.261-313.057-313.098-48.271 48.261z" />
<glyph unicode="&#xe911;" glyph-name="Abstract10, figure10, lines3, c" d="M307.2 789.33h330.199c119.265 0 215.931-96.707 215.931-215.962 0-119.245-96.655-215.9-215.931-215.9h-330.199v-68.27h330.199c156.969 0 284.201 127.232 284.201 284.17 0 156.959-127.232 284.232-284.201 284.232h-330.199v-68.27zM716.8 106.67h-330.199c-119.265 0-215.931 96.727-215.931 215.962 0 119.245 96.655 215.9 215.931 215.9h330.199v68.27h-330.199c-156.969 0-284.201-127.232-284.201-284.17 0-156.959 127.232-284.232 284.201-284.232h330.199v68.27z" />
<glyph unicode="&#xe912;" glyph-name="Abstract11, figure11, lines4, d" d="M898.376 834.396c-59.167 59.208-217.395 1.403-386.365-130.529-169.021 131.932-327.25 189.706-386.386 130.529-59.218-59.208-1.403-217.405 130.478-386.396-131.85-169.001-189.696-327.229-130.478-386.396 59.167-59.197 217.436-1.372 386.396 130.529 168.96-131.901 327.199-189.727 386.365-130.529 59.218 59.208 1.372 217.436-130.529 386.396 131.932 168.991 189.747 327.219 130.519 386.396zM831.642 789.381c12.513 0 17.807-2.601 18.473-3.267 3.441-3.43 12.339-42.168-30.444-131.287-23.204-48.343-56.044-100.188-96.041-152.699-23.583 27.279-48.906 54.548-75.919 81.551-26.972 26.931-54.252 52.265-81.48 75.837 112.445 85.524 211.261 129.864 265.411 129.864zM679.977 448.020c-25.006-29.358-51.814-58.706-80.579-87.47-29.338-29.379-58.614-56.105-87.357-80.517-29.368 24.965-58.706 51.773-87.45 80.517-29.379 29.358-56.136 58.644-80.548 87.368 24.965 29.409 51.743 58.706 80.476 87.46 29.409 29.368 58.675 56.166 87.419 80.579 29.409-25.006 58.757-51.814 87.48-80.548 29.389-29.379 56.156-58.614 80.558-87.388zM170.629 767.652c0 12.462 2.601 17.797 3.256 18.463 3.4 3.4 42.148 12.339 131.287-30.474 48.343-23.204 100.147-56.044 152.699-96.010-27.279-23.603-54.61-48.937-81.613-75.94-26.941-26.972-52.275-54.252-75.807-81.49-85.484 112.497-129.823 211.313-129.823 265.452zM192.358 106.609c-12.503 0-17.828 2.632-18.473 3.256-3.43 3.441-12.339 42.179 30.474 131.297 23.204 48.333 56.013 100.178 96.010 152.689 23.603-27.269 48.937-54.579 75.94-81.582 26.941-26.982 54.211-52.275 81.49-75.848-112.486-85.473-211.302-129.812-265.441-129.812zM853.381 128.348c0-12.483-2.632-17.807-3.267-18.442-3.43-3.441-42.168-12.37-131.287 30.444-48.302 23.204-100.147 56.044-152.658 96.041 27.238 23.583 54.548 48.906 81.51 75.889 26.982 26.972 52.306 54.241 75.889 81.51 85.473-112.486 129.812-211.261 129.812-265.441z" />
<glyph unicode="&#xe913;" glyph-name="Abstract12, figure12, lines5, dots" d="M136.53 482.13h102.4v-68.26h-102.4v68.26zM307.2 482.13h102.4v-68.26h-102.4v68.26zM477.87 482.13h68.26v-68.26h-68.26v68.26zM614.4 482.13h102.4v-68.26h-102.4v68.26zM785.070 482.13h102.4v-68.26h-102.4v68.26zM477.87 174.93h68.26v-102.4h-68.26v102.4zM477.87 345.6h68.26v-102.4h-68.26v102.4zM477.87 652.8h68.26v-102.4h-68.26v102.4zM477.87 823.47h68.26v-102.4h-68.26v102.4zM839.203 72.598l-72.404 72.435 48.28 48.26 72.404-72.435-48.28-48.26zM718.535 193.223l-72.4 72.4 48.267 48.267 72.4-72.4-48.267-48.267zM329.61 582.143l-72.435 72.404 48.274 48.295 72.435-72.404-48.274-48.295zM208.928 702.801l-72.4 72.4 48.267 48.267 72.4-72.4-48.267-48.267zM887.421 775.172l-72.435-72.404-48.26 48.28 72.435 72.404 48.26-48.28zM766.779 654.535l-72.4-72.4-48.267 48.267 72.4 72.4 48.267-48.267zM377.919 265.603l-72.429-72.429-48.281 48.281 72.429 72.429 48.281-48.281zM257.202 144.925l-72.4-72.4-48.267 48.267 72.4 72.4 48.267-48.267z" />
<glyph unicode="&#xe914;" glyph-name="Abstract13, figure13, lines6, e" d="M512 584.53c-75.397 0-136.53-61.133-136.53-136.53 0-75.428 61.133-136.53 136.53-136.53 75.366 0 136.53 61.102 136.53 136.53 0 75.397-61.164 136.53-136.53 136.53zM512 379.73c-37.704 0-68.27 30.536-68.27 68.27 0 37.704 30.566 68.27 68.27 68.27 37.673 0 68.27-30.566 68.27-68.27 0-37.734-30.597-68.27-68.27-68.27zM669.798 317.471c-30.669-37.038-74.199-62.874-123.668-71.199v-68.966c74.67 9.329 139.796 48.773 183.173 105.83l-59.505 34.335zM546.13 649.728c49.469-8.325 93-34.161 123.668-71.199l59.505 34.345c-43.366 57.057-108.503 96.502-183.173 105.83v-68.977zM716.8 448c0-25.129-4.731-49.070-13.025-71.301l59.955-34.632c13.742 32.563 21.34 68.362 21.34 105.933s-7.598 73.329-21.34 105.933l-59.955-34.632c8.294-22.231 13.025-46.203 13.025-71.301zM307.2 448c0 25.098 4.731 49.070 13.005 71.301l-59.935 34.632c-13.742-32.563-21.34-68.362-21.34-105.933s7.598-73.37 21.34-105.933l59.935 34.632c-8.274 22.231-13.005 46.172-13.005 71.301zM477.87 246.272c-49.469 8.325-93 34.161-123.668 71.199l-59.525-34.365c43.397-57.068 108.534-96.471 183.204-105.8v68.966zM354.202 578.529c30.669 37.038 74.168 62.874 123.668 71.199v68.966c-74.701-9.329-139.837-48.773-183.204-105.83l59.535-34.335zM170.67 482.13c9.933 99.973 63.13 186.941 140.401 242.668l-34.345 59.474c-97.526-67.871-163.994-176.937-174.326-302.141h68.27zM371.866 758.999c42.762 19.333 90.132 30.331 140.134 30.331s97.331-11.028 140.134-30.331l34.202 59.228c-52.961 24.975-111.903 39.373-174.336 39.373-62.474 0-121.395-14.367-174.326-39.373l34.191-59.228zM712.929 724.767c77.271-55.695 130.499-142.705 140.401-242.637h68.27c-10.332 125.174-76.8 234.271-174.326 302.141l-34.345-59.505zM311.071 171.203c-77.271 55.726-130.468 142.705-140.401 242.668h-68.27c10.332-125.174 76.8-234.271 174.326-302.141l34.345 59.474zM652.134 137.001c-42.803-19.333-90.132-30.331-140.134-30.331s-97.331 10.998-140.134 30.331l-34.202-59.228c52.941-25.006 111.862-39.373 174.336-39.373 62.433 0 121.375 14.367 174.326 39.373l-34.191 59.228zM853.33 413.87c-9.933-99.942-63.13-186.9-140.36-242.637l34.335-59.464c97.495 67.86 163.963 176.927 174.295 302.1h-68.27z" />
<glyph unicode="&#xe915;" glyph-name="Abstract14, figure14, lines7" d="M170.67 516.301c0-263.926 213.934-477.901 477.86-477.901v68.27c-226.232 0-409.6 183.398-409.6 409.631h-68.26zM648.53 789.33c-150.825 0-273.060-122.266-273.060-273.039 0-150.825 122.235-273.091 273.060-273.091v-68.27c-188.529 0-341.33 152.842-341.33 341.371 0 188.498 152.801 341.299 341.33 341.299v-68.27zM785.070 516.27c0 75.397-61.102 136.53-136.54 136.53-75.428 0-136.53-61.133-136.53-136.53s61.102-136.54 136.53-136.54v-68.26c-113.132 0-204.8 91.699-204.8 204.831 0 113.101 91.668 204.769 204.8 204.769 113.142 0 204.8-91.668 204.8-204.769l-68.26-0.031z" />
<glyph unicode="&#xe916;" glyph-name="Abstract15, figure15, sircles, b6" d="M849.469 539.064c-7.936 29.471-19.497 57.375-34.396 83.2 22.2 36.168 17.859 84.040-13.445 115.374-31.304 31.304-79.196 35.625-115.364 13.404-25.836 14.899-53.74 26.46-83.169 34.396-9.861 41.329-46.797 72.161-91.095 72.161-44.329 0-81.275-30.833-91.075-72.131-29.46-7.926-57.395-19.497-83.231-34.396-36.168 22.2-84.029 17.869-115.333-13.435-31.345-31.334-35.635-79.165-13.445-115.333-14.899-25.866-26.46-53.76-34.396-83.231-41.318-9.841-72.12-46.807-72.12-91.075 0-44.339 30.802-81.244 72.131-91.064 7.936-29.512 19.466-57.405 34.396-83.272-22.2-36.137-17.859-83.999 13.445-115.302 31.334-31.345 79.155-35.635 115.302-13.466 25.856-14.868 53.801-26.429 83.261-34.365 9.789-41.329 46.735-72.131 91.064-72.131 44.298 0 81.234 30.802 91.095 72.131 29.43 7.936 57.334 19.497 83.169 34.396 36.157-22.231 84.029-17.9 115.364 13.445 31.304 31.304 35.635 79.155 13.445 115.333 14.899 25.825 26.46 53.77 34.396 83.2 41.329 9.83 72.131 46.756 72.131 91.095 0 44.298-30.802 81.234-72.131 91.064zM711.127 695.398c13.343 13.332 34.939 13.302 48.271 0 13.332-13.332 13.332-34.939 0-48.302-13.332-13.332-34.929-13.302-48.271 0-13.322 13.343-13.353 34.939 0 48.302zM512 797.87c18.872 0 34.13-15.299 34.13-34.13 0-18.872-15.258-34.13-34.13-34.13s-34.13 15.268-34.13 34.13c0 18.821 15.258 34.13 34.13 34.13zM264.602 695.398c13.332 13.302 34.929 13.302 48.271 0 13.332-13.332 13.332-34.97 0-48.302-13.343-13.302-34.939-13.302-48.271 0-13.332 13.343-13.332 34.97 0 48.302zM196.27 413.86c-18.872 0-34.14 15.278-34.14 34.14 0 18.831 15.268 34.13 34.14 34.13 18.862 0 34.13-15.299 34.13-34.13 0-18.862-15.268-34.14-34.13-34.14zM312.873 200.602c-13.343-13.332-34.939-13.332-48.271 0s-13.332 34.929 0 48.271c13.332 13.332 34.929 13.332 48.271 0 13.322-13.343 13.322-34.939 0-48.271zM512 98.13c-18.872 0-34.13 15.268-34.13 34.14 0 18.862 15.258 34.13 34.13 34.13 18.831 0 34.13-15.268 34.13-34.13 0-18.872-15.299-34.14-34.13-34.14zM759.398 200.602c-13.332-13.332-34.929-13.332-48.271 0-13.363 13.332-13.332 34.929 0 48.271 13.302 13.332 34.939 13.363 48.271 0 13.332-13.343 13.302-34.939 0-48.271zM781.568 366.735c-5.468-18.135-12.636-35.512-21.473-51.907-31.468 8.643-66.499 1.004-91.197-23.726-24.73-24.73-32.399-59.73-23.726-91.197-16.404-8.827-33.772-16.005-51.896-21.473-16.169 28.375-46.336 47.698-81.275 47.698-35 0-65.126-19.333-81.275-47.698-18.135 5.437-35.533 12.595-51.896 21.443 8.673 31.457 1.044 66.458-23.695 91.228-24.73 24.73-59.761 32.369-91.259 23.695-8.796 16.404-16.005 33.772-21.473 51.937 28.396 16.118 47.729 46.264 47.729 81.265 0 34.939-19.333 65.096-47.729 81.265 5.468 18.135 12.667 35.502 21.473 51.896 31.457-8.663 66.499-1.034 91.259 23.695 24.74 24.74 32.338 59.771 23.695 91.269 16.374 8.796 33.772 15.964 51.896 21.432 16.138-28.365 46.275-47.698 81.275-47.698 34.929 0 65.096 19.333 81.275 47.698 18.135-5.468 35.502-12.626 51.896-21.463-8.643-31.498-1.004-66.499 23.726-91.238 24.73-24.73 59.73-32.369 91.197-23.726 8.827-16.374 16.005-33.731 21.473-51.866-28.375-16.169-47.698-46.326-47.698-81.265 0-34.959 19.333-65.137 47.698-81.265zM827.73 413.86c-18.862 0-34.13 15.278-34.13 34.14 0 18.831 15.268 34.13 34.13 34.13 18.872 0 34.14-15.299 34.14-34.13 0-18.862-15.268-34.14-34.14-34.14z" />
<glyph unicode="&#xe917;" glyph-name="Abstract16, figure16, sircles2" d="M512 493.998c-56.566 0-102.4-45.834-102.4-102.4s45.834-102.4 102.4-102.4 102.4 45.834 102.4 102.4-45.834 102.4-102.4 102.4zM512 357.468c-18.872 0-34.13 15.258-34.13 34.13s15.258 34.13 34.13 34.13 34.13-15.258 34.13-34.13-15.258-34.13-34.13-34.13zM847.227 374.2c0.297 5.796 0.87 11.53 0.87 17.398 0 130.468-74.373 243.231-182.866 298.967-1.997 83.128-69.632 149.965-153.231 149.965s-151.265-66.826-153.272-149.965c-108.503-55.736-182.856-168.499-182.856-298.967 0-5.868 0.604-11.602 0.86-17.428-44.36-26.941-74.332-75.244-74.332-130.97 0-84.828 68.772-153.569 153.6-153.6 26.931 0 51.866 7.526 73.871 19.702 52.531-33.925 114.934-53.832 182.129-53.832 67.174 0 129.597 19.896 182.098 53.832 22.006-12.175 46.93-19.702 73.871-19.702 84.859 0 153.631 68.772 153.631 153.6 0 55.726-29.972 104.069-74.373 131zM512 772.229c47.135 0 85.33-38.164 85.33-85.33 0-47.135-38.195-85.33-85.33-85.33s-85.33 38.195-85.33 85.33c0 47.176 38.195 85.33 85.33 85.33zM256 157.87c-47.135 0.031-85.33 38.195-85.33 85.33 0.031 47.165 38.195 85.33 85.33 85.371 47.135-0.041 85.33-38.195 85.33-85.371 0-47.135-38.195-85.33-85.33-85.33zM640.973 156.826c-38.246-21.053-82.207-33.096-128.973-33.096-46.797 0-90.726 12.042-129.004 33.137 16.773 24.607 26.604 54.303 26.604 86.333 0.031 84.9-68.772 153.6-153.6 153.631-4.004 0-7.731-0.86-11.674-1.157 1.444 95.662 53.002 178.903 129.536 225.126 24.771-51.599 77.066-87.501 138.138-87.501 61.102 0 113.367 35.901 138.127 87.501 76.544-46.234 128.072-129.475 129.495-225.126-3.932 0.297-7.66 1.157-11.663 1.157-84.828-0.031-153.559-68.762-153.59-153.631 0-32.031 9.83-61.727 26.604-86.374zM767.969 157.87c-47.145 0-85.299 38.195-85.299 85.33 0 47.165 38.164 85.33 85.299 85.33 47.155 0 85.361-38.164 85.361-85.33 0-47.135-38.195-85.33-85.361-85.33z" />
<glyph unicode="&#xe918;" glyph-name="Abstract17, figure17, square, lines8, b7" d="M512 550.4c-56.535 0-102.4-45.844-102.4-102.4 0-56.535 45.865-102.4 102.4-102.4 56.566 0 102.4 45.865 102.4 102.4 0 56.556-45.834 102.4-102.4 102.4zM512 413.87c-18.872 0-34.13 15.258-34.13 34.13s15.258 34.13 34.13 34.13 34.13-15.258 34.13-34.13-15.258-34.13-34.13-34.13zM415.465 303.184l-196.534-196.534-48.267 48.267 196.534 196.534 48.267-48.267zM656.822 351.481l196.534-196.534-48.267-48.267-196.534 196.534 48.267 48.267zM608.526 592.799l196.527 196.527 48.267-48.267-196.527-196.527-48.267 48.267zM367.209 544.524l-196.534 196.534 48.267 48.267 196.534-196.534-48.267-48.267z" />
<glyph unicode="&#xe919;" glyph-name="Abstract18, figure18, square2, lines9" d="M853.33 857.6h-682.66c-37.54 0-68.27-30.73-68.27-68.27v-682.66c0-37.54 30.73-68.27 68.27-68.27h682.66c37.54 0 68.27 30.73 68.27 68.27v682.66c0 37.54-30.73 68.27-68.27 68.27zM853.33 106.67h-682.66v682.66h102.4v-136.53h68.26v136.53h68.27v-273.060h68.27v273.060h68.26v-409.6h68.27v409.6h68.27v-546.13h68.26v546.13h102.4v-682.66z" />
<glyph unicode="&#xe91a;" glyph-name="Abstract19, figure19, squares, b8" d="M512 857.6l-409.6-409.6 409.6-409.6 409.6 409.6-409.6 409.6zM198.932 448l313.068 313.068 132.403-132.403-48.271-48.271-84.132 84.111-216.504-216.504 84.101-84.132-48.271-48.271-132.393 132.403zM632.003 448l-120.003-120.033-119.972 120.033 119.972 119.972 120.003-119.972zM379.597 267.325l48.271 48.271 84.132-84.101 216.535 216.504-84.132 84.132 48.271 48.271 132.393-132.403-313.068-313.068-132.403 132.393z" />
<glyph unicode="&#xe91b;" glyph-name="Abstract20, figure20, squares2, c2" d="M512 857.6l-358.4-204.8v-409.6l358.4-204.8 358.4 204.902v409.498l-358.4 204.8zM512 778.762l254.874-145.623-68.936-39.404-185.938 106.199-185.897-106.23-68.997 39.434 254.894 145.623zM663.501 534.569v-133.724l-117.002 66.816v133.734l117.002-66.826zM477.501 601.395v-133.704l-116.972-66.836v133.714l116.972 66.826zM477.501 136.94l-254.935 145.664v291.43l68.956-39.404v-212.593l185.979-106.281v-78.817zM394.967 341.74l117.002 66.857 117.033-66.857-117.002-66.836-117.033 66.836zM801.434 282.604l-254.935-145.664v78.817l185.969 106.24v212.634l68.956 39.404v-291.43z" />
<glyph unicode="&#xe91c;" glyph-name="Abstract21, figure21, squares3" d="M614.4 721.070h170.67v-170.67h-170.67v170.67zM477.87 857.6v-375.47h-375.47v-443.73h443.73v375.47h375.47v443.73h-443.73zM477.87 106.67h-307.2v307.2h307.2v-307.2zM853.33 482.13h-307.2v307.2h307.2v-307.2zM238.93 345.6h170.67v-170.67h-170.67v170.67z" />
<glyph unicode="&#xe91d;" glyph-name="Abstract22, figure22, triangle" d="M512 857.6l-409.6-819.2h819.2l-409.6 819.2zM512 704.932l230.871-461.732h-309.105l34.13 68.27h164.495l-120.392 240.835-188.672-377.375h453.673l34.13-68.26h-598.262l299.131 598.262z" />
<glyph unicode="&#xe91e;" glyph-name="Abstract23, figure23, triangles" d="M921.6 106.67l-244.797 408.003 125.327 206.397h-249.16l-40.97 68.26-40.97-68.26h-249.16l125.327-206.397-244.797-408.003h819.2zM680.827 652.8l-43.704-71.997-43.192 71.997h86.897zM514.335 652.8l82.739-137.933-85.074-140.134-85.074 140.134 82.739 137.933h4.669zM343.204 652.8h86.866l-43.203-71.997-43.663 71.997zM512 243.2l124.774 205.496 164.26-273.766h-578.068l164.26 273.766 124.774-205.496z" />
<glyph unicode="&#xe91f;" glyph-name="Abstract24, figure24" d="M546.13 584.53v-341.33h-443.73v-204.8h819.2v546.13h-375.47zM853.33 106.67h-682.66v68.26h443.73v341.34h238.93v-409.6zM102.4 857.6v-546.13h375.47v341.33h443.73v204.8h-819.2zM853.33 721.070h-443.73v-341.34h-238.93v409.6h682.66v-68.26z" />
<glyph unicode="&#xe920;" glyph-name="Abstract25, figures, circle3, square3" d="M714.803 584.53c-16.998 153.6-147.077 273.070-305.203 273.070-169.667 0-307.2-137.533-307.2-307.2 0-158.126 119.47-288.205 273.070-305.203v-206.797h546.13v546.13h-206.797zM170.67 550.4c0 131.768 107.203 238.93 238.93 238.93 120.125 0 219.566-89.201 236.196-204.8h-270.326v-270.326c-115.599 16.63-204.8 116.070-204.8 236.196zM645.796 516.27c-15.032-104.397-97.669-187.044-202.066-202.066v202.066h202.066zM853.33 106.67h-409.6v138.527c142.367 15.77 255.304 128.696 271.073 271.073h138.527v-409.6z" />
<glyph unicode="&#xe921;" glyph-name="Abstract26, figures2, circle4, triangle2, line3" d="M273.070 857.6c-94.269 0-170.67-76.401-170.67-170.67s76.401-170.67 170.67-170.67c94.228 0 170.67 76.442 170.67 170.67-0.010 94.239-76.452 170.67-170.67 170.67zM273.070 584.53c-56.576 0-102.4 45.834-102.4 102.4 0 56.576 45.824 102.4 102.4 102.4 56.566 0 102.4-45.824 102.4-102.4 0-56.566-45.834-102.4-102.4-102.4zM257.862 315.969l386.161 386.161 48.274-48.274-386.161-386.161-48.274 48.274zM306.131 171.192l482.709 482.709 48.281-48.281-482.709-482.709-48.281 48.281zM375.47 38.4h546.13v546.13l-546.13-546.13zM853.34 106.66h-313.078l313.078 313.027v-313.027z" />
<glyph unicode="&#xe922;" glyph-name="Abstract27, figures3, circle5, triangle3, square4" d="M102.4 857.6v-375.47h375.47v375.47h-375.47zM409.6 550.4h-238.93v238.93h238.93v-238.93zM853.34 413.86h-238.94c-37.54 0-68.26-30.72-68.26-68.26v-238.94c0-37.519 30.72-68.26 68.26-68.26h238.94c37.519 0 68.26 30.74 68.26 68.26v238.94c0 37.54-30.74 68.26-68.26 68.26zM853.34 106.66h-238.94v238.94h238.94v-238.94zM733.86 857.6c-103.66 0-187.72-84.060-187.72-187.771 0-103.629 84.060-187.699 187.72-187.699 103.68 0 187.74 84.070 187.74 187.699 0 103.711-84.060 187.771-187.74 187.771zM733.86 550.4c-65.956 0-119.46 53.504-119.46 119.47s53.504 119.47 119.46 119.47c65.966 0 119.48-53.504 119.48-119.47s-53.514-119.47-119.48-119.47zM307.2 413.86l-204.8-375.46h409.6l-204.8 375.46zM307.2 271.299l89.805-164.639h-179.61l89.805 164.639z" />
<glyph unicode="&#xe923;" glyph-name="Abstract28, figures4, circle6, triangle4" d="M580.27 857.6c-188.539 0-341.34-152.832-341.34-341.33h-136.53v-477.87l236.503 236.503c61.768-61.768 147.098-99.973 241.367-99.973 188.498 0 341.33 152.842 341.33 341.34s-152.832 341.33-341.33 341.33zM170.67 203.203v244.797h244.797l-244.797-244.797zM580.27 243.2c-75.274 0-143.544 30.628-193.004 80.067l193.004 193.004h-273.070c0 150.559 122.501 273.070 273.070 273.070 150.559 0 273.060-122.501 273.060-273.070s-122.501-273.070-273.060-273.070z" />
<glyph unicode="&#xe924;" glyph-name="Abstract29, figures5, squares4" d="M307.2 857.6v-341.33h273.070v-273.070h341.33v614.4h-614.4zM853.33 311.47h-204.8v273.060h-273.060v204.8h477.86v-477.86zM102.4 448v-409.6h409.6v409.6h-409.6zM443.73 106.67h-273.060v273.060h273.060v-273.060z" />
<glyph unicode="&#xe925;" glyph-name="Abstract30, figures6, triangle5, lines10" d="M921.6 857.6h-819.2v-819.2l240.63 240.63 240.64-240.63 48.261 48.271-240.599 240.66 48.271 48.271 337.193-337.203 48.271 48.271-337.203 337.203 48.261 48.261 169.667-169.656 48.271 48.261-169.667 169.656 48.302 48.271 240.63-240.599 48.271 48.261-240.63 240.599 240.63 240.671zM536.125 568.668l-119.951 120.003-48.241-48.302 119.941-119.972-48.271-48.271-168.274 168.243-48.23-48.271 168.233-168.233-48.261-48.271-71.741 71.7-48.261-48.302 71.7-71.7-124.099-124.088v586.127h586.127l-124.099-124.129-71.7 71.7-48.271-48.23 71.7-71.741-48.302-48.261z" />
<glyph unicode="&#xe926;" glyph-name="Abstract31, figures7, triangle6, square5, b9" d="M512 584.53l-136.53 273.070-273.070-546.13h273.070v-273.070h546.13v546.13h-409.6zM212.869 379.73l162.601 325.243 162.601-325.243h-325.202zM853.33 106.67h-409.6v204.8h204.8l-102.4 204.8h307.2v-409.6z" />
<glyph unicode="&#xe927;" glyph-name="Abstract32, figures8, triangle7, square6" d="M527.401 857.6l-275.927-477.87h-149.074v-341.33h341.33v136.53h477.87l-394.199 682.67zM375.47 106.67h-204.8v204.8h204.8v-204.8zM330.301 379.73l197.1 341.371 275.927-477.901h-359.598v136.53h-113.428z" />
<glyph unicode="&#xe928;" glyph-name="Activity-tracker, b10" d="M580.27 857.6h-136.54c-98.058 0-185.129-61.46-241.398-156.805-39.301-23.972-65.802-66.867-65.802-116.265v-136.1c0-0.133 0-0.297 0-0.43s0-0.297 0-0.43l0.041-136.1c0-49.398 26.501-92.273 65.761-116.244 56.238-95.355 143.34-156.826 241.398-156.826h136.54c169.656 0 307.2 183.398 307.2 409.6s-137.544 409.6-307.2 409.6zM405.074 784.23c-24.535-22.804-46.438-50.237-65.065-81.398-12.268 6.963-25.467 12.595-39.731 15.503 30.351 33.26 66.12 56.463 104.796 65.894zM204.831 311.47l-0.031 273.060c0 37.673 30.597 68.27 68.229 68.27 37.642 0 68.27-30.597 68.27-68.27l0.031-273.060c0-37.642-30.597-68.27-68.229-68.27s-68.27 30.628-68.27 68.27zM300.268 177.674c14.264 2.898 27.464 8.499 39.731 15.503 18.627-31.171 40.53-58.604 65.096-81.398-38.697 9.421-74.465 32.625-104.827 65.894zM512 121.6c-48.466 21.473-90.726 65.004-121.201 121.866 11.633 20.101 18.801 43.1 18.801 68.004l-0.031 273.060c0 24.873-7.168 47.872-18.77 67.973 30.433 56.863 72.735 100.434 121.201 121.897 97.475-43.131 170.67-175.135 170.67-326.4 0-151.296-73.196-283.269-170.67-326.4zM618.895 111.77c79.739 74.004 132.035 196.905 132.035 336.23s-52.296 262.267-132.035 336.23c111.872-27.331 200.305-170.004 200.305-336.23 0-166.267-88.433-308.931-200.305-336.23zM247.47 567.47h51.2v-85.34h-51.2v85.34zM247.47 413.87h51.2v-85.34h-51.2v85.34z" />
<glyph unicode="&#xe929;" glyph-name="Activity-tracker2, smart-watch" d="M665.6 345.6c0-28.277-22.923-51.2-51.2-51.2s-51.2 22.923-51.2 51.2c0 28.277 22.923 51.2 51.2 51.2s51.2-22.923 51.2-51.2zM802.13 345.6c0-28.277-22.923-51.2-51.2-51.2s-51.2 22.923-51.2 51.2c0 28.277 22.923 51.2 51.2 51.2s51.2-22.923 51.2-51.2zM921.6 618.67c0 28.201-11.53 53.801-30.075 72.325l0.072 0.072c-42.127 42.199-72.397 102.205-72.397 166.533h-273.070c0-43.674-14.131-85.166-36.229-120.596-43.233 74.127-102.574 120.596-168.571 120.596-131.963 0-238.93-183.368-238.93-409.6s106.967-409.6 238.93-409.6c65.997 0 125.338 46.5 168.54 120.668 22.129-35.471 36.26-77.005 36.26-120.668h273.070c0 64.328 30.269 124.396 72.397 166.533l-0.072 0.072c18.545 18.596 30.075 44.196 30.075 72.325v341.34zM605.532 789.33h154.266c5.868-23.532 15.196-46.326 26.665-68.26h-207.534c11.469 21.934 20.746 44.728 26.604 68.26zM341.33 789.33c10.803 0 21.801-2.703 32.666-7.526-33.403-14.172-63.13-47.933-86.2-94.874h-65.597c33.004 64.399 77.271 102.4 119.132 102.4zM170.67 448c0 63.898 9.134 121.6 24.125 170.67h67c-14.531-50.196-22.866-108.472-22.866-170.67s8.335-120.474 22.866-170.67h-67c-14.991 49.070-24.125 106.742-24.125 170.67zM341.33 106.67c-41.861 0-86.129 38.001-119.132 102.4h65.597c23.071-46.971 52.797-80.701 86.2-94.874-10.865-4.823-21.862-7.526-32.666-7.526zM409.6 174.93c-36.096 0-102.4 103.67-102.4 273.070s66.304 273.070 102.4 273.070c14.275 0 33.27-16.374 50.995-46.541-10.598-16.056-16.865-35.226-16.865-55.859v-341.34c0-20.603 6.267-39.731 16.865-55.859-17.766-30.075-36.721-46.541-50.995-46.541zM759.798 106.67h-154.266c-5.857 23.532-15.135 46.326-26.604 68.26h207.544c-11.469-21.934-20.808-44.728-26.675-68.26zM853.33 277.33c0-18.463-15.596-34.13-34.13-34.13h-273.070c-18.463 0-34.13 15.667-34.13 34.13v341.34c0 18.534 15.667 34.13 34.13 34.13h273.070c18.534 0 34.13-15.596 34.13-34.13v-341.34z" />
<glyph unicode="&#xe92a;" glyph-name="Activity-tracker3" d="M614.4 857.6h-204.831c-113.101 0-204.769-91.699-204.769-204.8v-409.631c0-113.101 91.699-204.769 204.8-204.769h204.8c113.101 0 204.8 91.699 204.8 204.8v409.6c0 113.101-91.668 204.8-204.8 204.8zM273.070 550.4c0 37.652 30.597 68.27 68.229 68.27s68.27-30.618 68.27-68.27v-204.8c0-37.632-30.638-68.27-68.239-68.27-37.663 0-68.26 30.638-68.26 68.27v204.8zM409.6 106.67c-69.898 0-126.874 52.726-134.932 120.463 19.804-11.162 42.332-18.063 66.662-18.063 25.303 0 48.701 7.363 68.997 19.333 3.338-46.674 22.303-88.934 51.743-121.733h-52.47zM410.327 667.566c-20.326 12.022-43.735 19.374-69.028 19.374-24.33 0-46.828-6.902-66.632-18.053 8.059 67.727 65.034 120.453 134.902 120.453v0.031l0.031-0.041h52.47c-29.44-32.819-48.404-75.069-51.743-121.764zM580.27 243.2c0-42.926-20.244-80.773-51.2-105.8-30.996 25.027-51.2 62.874-51.2 105.8v409.6c0 42.936 20.204 80.763 51.2 105.8 30.996-25.037 51.2-62.863 51.2-105.8v-409.6zM750.93 243.2c0-75.397-61.133-136.53-136.53-136.53-5.765 0-11.274 1.004-16.835 1.7h0.031c31.631 36.035 50.934 83.128 50.934 134.83v409.6c0 51.702-19.302 98.796-50.903 134.83h-0.031c5.571 0.696 11.028 1.7 16.804 1.7 75.428 0 136.53-61.133 136.53-136.53v-409.6zM375.47 379.73c0-18.903-15.268-34.13-34.14-34.13-18.862 0-34.13 15.227-34.13 34.13 0 18.872 15.268 34.14 34.13 34.14 18.872 0 34.14-15.268 34.14-34.14z" />
<glyph unicode="&#xe92b;" glyph-name="Add-new-table" d="M785.070 376.3v413.030c0 37.54-30.74 68.27-68.27 68.27h-546.13c-37.54 0-68.27-30.73-68.27-68.27v-546.13c0-37.53 30.73-68.27 68.27-68.27h413.030c15.831-77.865 84.695-136.53 167.229-136.53 94.239 0 170.67 76.431 170.67 170.67 0 82.555-58.665 151.398-136.53 167.229zM583.7 243.2h-413.030v546.13h546.13v-413.030c-66.867-13.599-119.501-66.232-133.1-133.1zM853.33 183.47h-76.8v-76.8h-51.2v76.8h-76.8v51.2h76.8v76.8h51.2v-76.8h76.8v-51.2zM648.53 669.87v51.2h-409.6v-409.6h51.2v85.33h85.34v-85.33h51.2v85.33h85.33v-85.33h51.2v85.33h85.33v51.2h-85.33v85.33h85.33v51.2h-85.33v85.34h85.33zM290.13 669.87h85.34v-85.34h-85.34v85.34zM290.13 448v85.33h85.34v-85.33h-85.34zM512 448h-85.33v85.33h85.33v-85.33zM512 584.53h-85.33v85.34h85.33v-85.34z" />
<glyph unicode="&#xe92c;" glyph-name="Add, playlist, music" d="M512 857.6v-587.203c-43.366 25.272-103.772 41.073-170.67 41.073-131.932 0-238.93-61.143-238.93-136.54s106.998-136.53 238.93-136.53c131.942 0 238.94 61.133 238.94 136.53v466.473l273.060-45.496v204.8l-341.33 56.893zM341.33 106.67c-110.858 0-170.66 48.456-170.66 68.26s59.802 68.27 170.66 68.27c110.868 0 170.67-48.466 170.67-68.27s-59.802-68.26-170.67-68.26zM785.070 676.475l-204.8 34.13v66.396l204.8-34.13v-66.396zM921.6 277.33h-102.4v102.4h-68.27v-102.4h-102.4v-68.26h102.4v-102.4h68.27v102.4h102.4z" />
<glyph unicode="&#xe92d;" glyph-name="Agrimotor, tractor" d="M273.070 379.73c-94.239 0-170.67-76.401-170.67-170.701 0-94.228 76.431-170.629 170.67-170.629 94.259 0 170.701 76.401 170.701 170.629 0 94.3-76.442 170.701-170.701 170.701zM273.070 106.67c-56.474 0-102.4 45.926-102.4 102.359 0 56.474 45.926 102.441 102.4 102.441 56.463 0 102.431-45.967 102.431-102.441 0-56.433-45.967-102.359-102.431-102.359zM273.070 174.93c-18.801 0-34.14 15.299-34.14 34.14 0 18.801 15.34 34.13 34.14 34.13 18.831 0 34.13-15.329 34.13-34.13 0-18.842-15.299-34.14-34.13-34.14zM861.604 422.144c-19.098 19.098-41.431 34.028-66.468 44.39l-120.064 49.725-128.942 273.070h68.27v68.27h-512v-68.27h68.27v-273.070h-68.27v-68.26h170.67c132.004 0 238.961-106.967 238.961-238.971v-102.359h142.766c14.131-39.67 51.671-68.27 96.174-68.27s82.002 28.6 96.133 68.27h74.496v170.66c0 54.743-21.33 106.199-59.996 144.814zM307.2 516.27h-68.27v273.060h68.27v-273.060zM375.47 516.27v273.060h95.16l128.942-273.070h-224.102zM750.971 106.67c-18.842 0-34.171 15.299-34.171 34.13s15.329 34.13 34.171 34.13c18.831 0 34.13-15.299 34.13-34.13s-15.299-34.13-34.13-34.13zM853.33 174.93h-6.226c-14.131 39.67-51.63 68.27-96.133 68.27s-82.043-28.6-96.174-68.27h-74.496v34.099c0 96.471-44.769 182.6-114.565 238.971h195.697c61.071-25.303 107.674-44.595 107.643-44.575 16.66-6.902 31.703-16.998 44.257-29.563 24.74-24.699 39.997-58.839 39.997-96.543v-102.39z" />
<glyph unicode="&#xe92e;" glyph-name="Aim" d="M853.33 857.6h-682.66c-37.54 0-68.27-30.74-68.27-68.27v-682.67c0-37.53 30.73-68.26 68.27-68.26h682.66c37.54 0 68.27 30.73 68.27 68.26v682.67c0 37.53-30.73 68.27-68.27 68.27zM853.33 413.86v-307.2h-307.2v136.54h-68.26v-136.54h-307.2v307.2h136.53v68.27h-136.53v307.2h307.2v-136.53h68.26v136.53h307.2v-307.2h-136.53v-68.27h136.53z" />
<glyph unicode="&#xe92f;" glyph-name="Air-ticket" d="M853.33 652.8l-68.26 204.8-682.67-204.8v-546.13c0-37.54 30.73-68.27 68.27-68.27h682.66c37.54 0 68.27 30.73 68.27 68.27v477.86c0 37.55-30.73 68.27-68.27 68.27zM741.233 773.181l40.141-120.381h-441.405l401.265 120.381zM853.33 106.67h-682.66v477.86h682.66v-477.86zM631.47 379.73h-105.267l-79.636 136.54h-65.403l22.764-136.53h-85.361l-45.496 68.26h-34.14l34.14-102.4-34.14-102.4h34.14l45.496 68.27h85.361l-22.764-136.54h65.403l79.626 136.54h105.267c18.872 0 34.14 15.258 34.14 34.13 0 18.862-15.268 34.13-34.13 34.13zM580.27 516.27h204.8v-68.27h-204.8v68.27zM716.8 311.47h68.27v-136.54h-68.27v136.54zM580.27 243.2h68.26v-68.27h-68.26v68.27z" />
<glyph unicode="&#xe930;" glyph-name="Aircraft-seats" d="M580.27 243.19v204.8h-68.27v307.2c0 56.535-45.834 102.42-102.369 102.42l-136.561-0.020c-56.535 0-102.4-45.855-102.4-102.4v-307.2h-68.27v-204.8c0-37.704 30.566-68.301 68.27-68.301v-68.229h-68.27v-68.27h477.87v68.27h-68.27v68.27c37.673 0 68.27 30.556 68.27 68.26zM238.93 755.19c0 18.872 15.268 34.14 34.14 34.14l136.561 0.031c18.842 0 34.14-15.299 34.14-34.171l-0.041-375.46h-204.8v375.46zM443.73 106.66h-204.8v68.229l204.8 0.041v-68.27zM170.67 243.19v68.27h341.33v-68.27h-341.33zM921.6 106.66h-102.4v68.229l102.4 0.041v68.26h-170.67v68.27h170.67v68.27h-102.4v375.46c0 18.872 15.268 34.14 34.13 34.14h68.27v68.26h-68.27c-56.535 0-102.4-45.855-102.4-102.4v-307.2h-68.26v-204.8c0-37.704 30.556-68.301 68.26-68.301v-68.229h-68.26v-68.27h238.93v68.27z" />
<glyph unicode="&#xe931;" glyph-name="Aircraft, arrival" d="M102.4 140.8h819.2v-68.27h-819.2v68.27zM759.726 550.799l-350.259 61.768-104.038 190.3-116.756 20.603-1.597-171.674-61.143 10.772-11.796-66.775c73.298-104.632 182.2-169.667 298.875-190.198l11.203-2.028-76.872-123.965 133.396-23.532 210.371 100.465 33.331-5.898c92.14-16.23 174.705 15.442 184.474 70.666 9.718 55.265-57.078 113.224-149.187 129.495zM736.266 417.874l-54.866 9.697-210.33-100.475-12.595 2.202 76.698 123.628-110.039 19.845c-23.060 4.055-45.599 10.097-67.256 18.002-51.968 18.903-98.703 48.097-137.974 85.903l34.703-6.103 1.597 171.704 5.069-0.932 104.028-190.31 382.597-67.502c12.104-2.13 23.828-5.233 34.867-9.226 41.257-15.032 57.764-36.874 58.829-42.732-4.792-6.042-44.124-24.474-105.329-13.701z" />
<glyph unicode="&#xe932;" glyph-name="Aircraft2, departure" d="M102.4 209.070h819.19v-68.27h-819.19v68.27zM920.658 603.034c-9.728 55.265-92.334 86.897-184.433 70.666l-350.3-61.768-162.826 143.268-116.767-20.603 57.242-161.874-61.174-10.793 11.796-66.734c104.632-73.267 229.202-97.126 345.856-76.534l11.203 1.925-29.829-142.797 133.427 23.542 163.297 166.328 33.331 5.857c92.15 16.282 158.904 74.281 149.176 129.516zM759.634 540.774l-54.866-9.667-163.308-166.339-12.595-2.243 29.798 142.397-110.203-18.995c-23.030-4.055-46.264-6.103-69.335-6.103-55.327 0-109.199 11.469-159.027 33.536l34.703 6.134-57.231 161.905 5.1 0.87 162.826-143.268 382.587 67.461c12.104 2.14 24.197 3.205 35.942 3.205 43.899 0 66.898-14.858 69.898-19.988-2.437-7.352-33.096-38.113-94.29-48.906z" />
<glyph unicode="&#xe933;" glyph-name="Airplane, departure2, cancel" d="M681.667 857.6l-170.67-170.67h-93.102l-140.667 140.667c-39.997 39.997-104.858 39.997-144.835 0-39.997-39.997-39.997-104.796 0-144.763l140.667-140.698v-93.133l-170.66-170.66 48.271-48.282 579.256 579.277-48.261 48.261zM341.299 517.233v53.166l-160.625 160.696c-13.302 13.23-13.271 34.939 0.061 48.302 13.271 13.261 34.898 13.261 48.241-0.061l160.604-160.666h53.156l-101.437-101.437zM341.33 324.198v-151.46l56.801 208.2 66.294 66.324 160.604-160.604 48.302 48.282-160.604 160.625 66.304 66.304 208.271 56.801h-151.47l68.27 68.26h115.098l102.4-102.4-315.3-85.996 115.302-115.333 151.798 41.359 48.2-48.159-217.201-120.801-120.699-217.201-48.302 48.271 41.4 151.726-115.333 115.343-85.965-315.341-102.431 102.472v115.067z" />
<glyph unicode="&#xe934;" glyph-name="Airplane2, departure3" d="M721.603 383.222l-115.302 115.333 315.3 85.996-102.4 102.4h-401.295l-140.677 140.667c-39.997 39.997-104.858 39.997-144.835 0-39.997-39.997-39.997-104.796 0-144.763l140.667-140.698v-401.306l102.441-102.472 85.975 315.372 115.333-115.333-41.4-151.736 48.302-48.302 120.699 217.201 217.19 120.801-48.2 48.2-151.798-41.359zM625.029 286.648l-198.502 198.533-85.197-312.463-0.031 397.701-160.625 160.696c-13.302 13.23-13.271 34.939 0.061 48.302 13.271 13.261 34.898 13.261 48.241-0.061l160.604-160.666h397.732l-312.474-85.197 198.492-198.543-48.302-48.302z" />
<glyph unicode="&#xe935;" glyph-name="Alarm-clock, add" d="M375.46 448c0-18.849-15.28-34.13-34.13-34.13s-34.13 15.28-34.13 34.13c0 18.849 15.28 34.13 34.13 34.13s34.13-15.28 34.13-34.13zM512 311.47c18.872 0 34.13-15.268 34.13-34.14 0-18.862-15.258-34.13-34.13-34.13s-34.13 15.268-34.13 34.13c0 18.872 15.258 34.14 34.13 34.14zM546.13 482.13v170.67h-68.26v-204.8c0-18.872 15.258-34.14 34.13-34.14h204.8v68.27h-170.67zM839.926 354.058c8.54 29.901 13.404 61.338 13.404 93.942 0 30.505-4.403 59.935-11.899 88.064l30.167 30.167c66.673 66.673 66.673 174.705 0 241.367-66.632 66.662-174.705 66.662-241.367 0l-30.157-30.167c-28.14 7.496-57.569 11.899-88.074 11.899-30.525 0-59.935-4.403-88.074-11.899l-30.157 30.167c-66.673 66.662-174.705 66.662-241.367 0-66.673-66.642-66.673-174.705 0-241.367l30.167-30.167c-7.496-28.129-11.899-57.528-11.899-88.064 0-106.875 49.234-202.23 126.157-264.827l-57.897-144.773h73.544l42.66 106.67c47.002-24.402 100.27-38.4 156.867-38.4 32.604 0 64.072 4.864 93.932 13.404 30.034-48.804 83.497-81.674 144.998-81.674 94.239 0 170.67 76.431 170.67 170.67 0 61.532-32.87 114.964-81.674 144.988zM678.502 759.327c19.333 19.333 45.066 30.003 72.428 30.003 27.341 0 53.043-10.67 72.397-30.003 39.936-39.926 39.936-104.899 0-144.835l-8.796-8.796c-32.328 61.86-82.964 112.497-144.835 144.835l8.806 8.796zM200.673 614.502c-19.343 19.364-30.003 45.097-30.003 72.428s10.66 53.074 30.003 72.397c39.926 39.936 104.899 39.936 144.835 0l8.796-8.796c-61.87-32.297-112.538-82.975-144.835-144.835l-8.796 8.806zM580.27 209.070c0-8.397 1.3-16.466 2.458-24.535-22.6-6.062-46.223-9.605-70.728-9.605-150.804 0-273.070 122.337-273.070 273.070 0 150.804 122.266 273.060 273.070 273.060 150.733 0 273.070-122.255 273.070-273.060 0-24.504-3.543-48.138-9.605-70.738-8.069 1.167-16.138 2.468-24.535 2.468-94.228 0-170.66-76.401-170.66-170.66zM853.33 183.47h-76.8v-76.8h-51.2v76.8h-76.8v51.2h76.8v76.8h51.2v-76.8h76.8v-51.2z" />
<glyph unicode="&#xe936;" glyph-name="Alarm-clock2, time" d="M853.33 721.060h-68.26v68.27h-68.27v-68.27h-68.27v68.27h-68.26v-68.27h-409.6c-37.54 0-68.27-30.71-68.27-68.26v-409.6c0-37.53 30.73-68.27 68.27-68.27h68.26v-68.26h68.27v68.26h409.6v-68.26h68.27v68.26h68.26c37.54 0 68.27 30.74 68.27 68.27v409.6c0 37.55-30.73 68.26-68.27 68.26zM853.33 243.2h-682.66v409.6h682.66v-409.6zM435.2 524.8h51.2v-51.2h-51.2v51.2zM435.2 422.4h51.2v-51.2h-51.2v51.2zM537.6 576h51.2v-256h-51.2v256zM793.6 524.8v51.2h-153.6v-153.6h76.728c14.141 0 25.6-11.469 25.6-25.6s-11.459-25.6-25.6-25.6h-76.728v-51.2h76.8c42.373 0.031 76.728 34.427 76.728 76.8 0 42.383-34.355 76.749-76.728 76.8v0h-25.6v51.2h102.4zM383.969 499.2c0 42.404-34.365 76.8-76.8 76.8-42.445 0-76.8-34.396-76.8-76.8s34.355-76.8 76.8-76.8c0.031 0 0.031 0 0.031 0h25.6v-25.6c0-14.131-11.469-25.6-25.6-25.6s-25.6 11.469-25.6 25.6h-51.2c0-42.404 34.396-76.8 76.8-76.8s76.8 34.396 76.8 76.8v102.4h-0.031zM332.8 473.6h-25.6c0 0 0 0-0.031 0-14.141 0-25.6 11.459-25.6 25.6 0 14.131 11.459 25.6 25.6 25.6 14.131 0 25.6-11.469 25.6-25.6h0.031v-25.6z" />
<glyph unicode="&#xe937;" glyph-name="Alarm, time2, blocked" d="M375.47 448c0-18.849-15.28-34.13-34.13-34.13s-34.13 15.28-34.13 34.13c0 18.849 15.28 34.13 34.13 34.13s34.13-15.28 34.13-34.13zM512 311.47c18.872 0 34.13-15.268 34.13-34.14 0-18.862-15.258-34.13-34.13-34.13s-34.13 15.268-34.13 34.13c0 18.872 15.258 34.14 34.13 34.14zM853.33 448c0 30.505-4.403 59.935-11.899 88.074l30.167 30.157c66.673 66.673 66.673 174.705 0 241.367-66.632 66.662-174.705 66.662-241.367 0l-30.157-30.167c-28.14 7.496-57.569 11.899-88.074 11.899-30.525 0-59.935-4.403-88.064-11.899l-30.167 30.167c-58.429 58.399-148.531 65.608-214.804 21.699l-28.293 28.303-48.271-48.271 28.303-28.303c-43.93-66.253-36.7-156.396 21.699-214.804l30.167-30.157c-7.496-28.14-11.899-57.539-11.899-88.074 0-106.875 49.234-202.23 126.126-264.827l-57.856-144.763h73.533l42.67 106.67c47.002-24.402 100.26-38.4 156.856-38.4s109.865 13.998 156.867 38.4l42.66-106.67h73.544l-57.866 144.773c0.266 0.205 0.471 0.43 0.727 0.635l145.398-145.408 48.271 48.271-145.531 145.531c48.159 58.829 77.261 133.868 77.261 215.798zM678.502 759.327c19.333 19.333 45.066 30.003 72.428 30.003 27.341 0 53.043-10.67 72.397-30.003 39.936-39.926 39.936-104.899 0-144.835l-8.796-8.796c-32.328 61.86-82.964 112.497-144.835 144.835l8.806 8.796zM512 721.060c150.733 0 273.070-122.255 273.070-273.060 0-63.068-21.596-120.996-57.569-167.229l-133.1 133.1h122.399v68.26h-170.67v170.67h-68.26v-122.399l-133.13 133.13c46.264 35.932 104.161 57.528 167.26 57.528zM345.498 759.327l8.796-8.796c-20.695-10.824-39.598-24.371-57.528-39.035l-67.502 67.512c38.011 18.053 84.808 11.756 116.234-19.681zM170.67 686.93c0 15.483 3.768 30.3 10.271 43.878l67.564-67.584c-14.664-17.93-28.232-36.823-39.035-57.528l-8.796 8.796c-19.333 19.364-30.003 45.107-30.003 72.438zM512 174.93c-150.804 0-273.060 122.337-273.060 273.070 0 63.078 21.596 121.006 57.528 167.26l191.334-191.345c0.072-0.041 0.072-0.072 0.133-0.102l191.304-191.324c-46.244-35.963-104.172-57.559-167.24-57.559z" />
<glyph unicode="&#xe938;" glyph-name="Alarm2, time3, check" d="M375.46 448c0-18.849-15.28-34.13-34.13-34.13s-34.13 15.28-34.13 34.13c0 18.849 15.28 34.13 34.13 34.13s34.13-15.28 34.13-34.13zM512 311.47c18.852 0 34.13-15.268 34.13-34.13s-15.268-34.14-34.13-34.14c-18.872 0-34.14 15.278-34.14 34.14s15.278 34.13 34.14 34.13zM546.13 482.13v170.67h-68.27v-204.8c0-18.872 15.268-34.13 34.14-34.13h204.8v68.27h-170.67zM839.926 354.068c8.54 29.901 13.404 61.327 13.404 93.932 0 30.505-4.403 59.935-11.899 88.064l30.167 30.167c66.662 66.662 66.662 174.705 0 241.367-66.632 66.662-174.715 66.662-241.367 0l-30.167-30.157c-28.129 7.496-57.569 11.899-88.054 11.899-30.536 0-59.945-4.403-88.074-11.899l-30.177 30.167c-66.693 66.662-174.694 66.662-241.367 0-66.662-66.632-66.662-174.705 0-241.367l30.167-30.167c-7.496-28.14-11.899-57.539-11.899-88.064 0-106.865 49.234-202.24 126.136-264.837l-57.866-144.773h73.544l42.66 106.67c47.002-24.402 100.27-38.4 156.877-38.4 32.584 0 64.051 4.864 93.921 13.404 30.024-48.804 83.497-81.674 144.998-81.674 94.239 0 170.67 76.431 170.67 170.67 0 61.532-32.87 114.975-81.674 144.998zM678.492 759.337c19.343 19.333 45.076 30.003 72.438 30.003 27.341 0 53.043-10.67 72.397-30.003 39.926-39.936 39.926-104.909 0-144.835l-8.796-8.796c-32.328 61.87-82.964 112.497-144.845 144.835l8.806 8.796zM200.663 614.502c-19.333 19.364-30.003 45.097-30.003 72.428s10.67 53.074 30.003 72.407c39.936 39.936 104.909 39.936 144.835 0l8.796-8.796c-61.87-32.307-112.527-82.975-144.835-144.835l-8.796 8.796zM580.26 209.070c0-8.397 1.3-16.466 2.468-24.535-22.6-6.062-46.234-9.605-70.728-9.605-150.804 0-273.070 122.337-273.070 273.070 0 150.804 122.266 273.070 273.070 273.070 150.723 0 273.070-122.266 273.070-273.070 0-24.504-3.543-48.138-9.605-70.738-8.069 1.167-16.138 2.468-24.535 2.468-94.239 0.010-170.67-76.39-170.67-170.66zM738.867 133.632l-90.511 90.542 36.198 36.198 54.313-54.303 78.428 78.428 36.198-36.198-114.627-114.668z" />
<glyph unicode="&#xe939;" glyph-name="Alarm3, time4, document" d="M273.070 448h273.060v-68.27h-273.060v68.27zM273.070 311.47h204.8v-68.27h-204.8v68.27zM273.070 584.53h341.33v-68.27h-341.33v68.27zM273.070 721.070h273.060v-68.27h-273.060v68.27zM477.87 174.93h-273.070v614.4h477.87v-273.070h68.26v273.070c0 37.53-30.73 68.27-68.26 68.27h-477.87c-37.571 0-68.27-30.73-68.27-68.27v-614.4c0-37.53 30.7-68.26 68.27-68.26h273.070v68.26zM819.2 243.2v102.4c0 56.535-45.865 102.4-102.4 102.4s-102.4-45.865-102.4-102.4v-102.4c0-37.734-30.597-68.27-68.27-68.27v-68.26h102.4c0-37.745 30.566-68.27 68.27-68.27 37.734 0 68.27 30.525 68.27 68.27h102.4v68.26c-37.704 0-68.27 30.597-68.27 68.27zM682.67 243.2v102.4c0 18.872 15.299 34.13 34.13 34.13s34.13-15.258 34.13-34.13v-102.4h0.041c0-24.996 7.199-48.097 18.934-68.27h-106.179c11.745 20.173 18.944 43.274 18.944 68.27z" />
<glyph unicode="&#xe93a;" glyph-name="Align, center" d="M102.4 652.8h819.2v-68.27h-819.2v68.27zM204.8 482.13h614.4v-68.27h-614.4v68.27zM307.2 311.46h409.6v-68.26h-409.6v68.26z" />
<glyph unicode="&#xe93b;" glyph-name="Align2, horizontal, center2" d="M716.8 413.86h-170.67v68.27h102.4c18.77 0 34.14 15.36 34.14 34.13v136.54c0 18.77-15.37 34.13-34.14 34.13h-102.4v68.27h-68.26v-68.27h-102.4c-18.77 0-34.14-15.37-34.14-34.13v-136.53c0-18.77 15.37-34.13 34.14-34.13h102.4v-68.27h-170.67c-18.77 0-34.13-15.36-34.13-34.12v-136.55c0-18.76 15.36-34.14 34.13-34.14h170.67v-68.26h68.26v68.26h170.67c18.77 0 34.13 15.38 34.13 34.14v136.54c0 18.76-15.36 34.12-34.13 34.12zM682.67 277.34h-341.34v68.26h341.34v-68.26z" />
<glyph unicode="&#xe93c;" glyph-name="Align3, horizontal2, left" d="M204.8 755.2h68.27v-614.4h-68.27v614.4zM785.070 413.86h-409.6c-18.77 0-34.14-15.36-34.14-34.12v-136.54c0-18.76 15.37-34.14 34.14-34.14h409.6c18.76 0 34.13 15.38 34.13 34.14v136.54c0 18.76-15.37 34.12-34.13 34.12zM750.93 277.34h-341.33v68.26h341.33v-68.26zM682.67 516.27c0-18.77-15.37-34.13-34.14-34.13h-273.060c-18.77 0-34.14 15.36-34.14 34.13v136.53c0 18.77 15.37 34.13 34.14 34.13h273.060c18.77 0 34.14-15.37 34.14-34.13v-136.53z" />
<glyph unicode="&#xe93d;" glyph-name="Align4, horizontal3, right" d="M750.93 755.2h68.27v-614.4h-68.27v614.4zM648.53 413.86h-409.6c-18.76 0-34.13-15.36-34.13-34.12v-136.54c0-18.77 15.37-34.13 34.13-34.13h409.6c18.77 0 34.14 15.36 34.14 34.13v136.54c0 18.76-15.37 34.12-34.14 34.12zM614.4 277.33h-341.33v68.27h341.33v-68.27zM682.67 516.27c0-18.77-15.37-34.13-34.14-34.13h-273.060c-18.77 0-34.14 15.36-34.14 34.13v136.53c0 18.77 15.37 34.13 34.14 34.13h273.060c18.77 0 34.14-15.37 34.14-34.13v-136.53z" />
<glyph unicode="&#xe93e;" glyph-name="Align5, justify" d="M204.8 755.2h614.4v-68.27h-614.4v68.27zM204.8 618.67h409.6v-68.27h-409.6v68.27zM682.67 618.67h136.53v-68.27h-136.53v68.27zM477.87 482.13h341.33v-68.27h-341.33v68.27zM204.8 482.13h204.8v-68.27h-204.8v68.27zM204.8 345.6h341.33v-68.26h-341.33v68.26zM614.4 345.6h204.8v-68.26h-204.8v68.26zM204.8 209.060h136.53v-68.26h-136.53v68.26zM409.6 209.060h409.6v-68.26h-409.6v68.26z" />
<glyph unicode="&#xe93f;" glyph-name="Align6, left2, list" d="M409.6 755.2h409.6v-68.27h-409.6v68.27zM204.8 755.2h136.53v-68.27h-136.53v68.27zM204.8 482.13h136.53v-68.27h-136.53v68.27zM204.8 618.67h136.53v-68.27h-136.53v68.27zM204.8 209.060h136.53v-68.26h-136.53v68.26zM204.8 345.6h136.53v-68.26h-136.53v68.26zM409.6 618.67h273.070v-68.27h-273.070v68.27zM409.6 482.13h409.6v-68.27h-409.6v68.27zM409.6 345.6h273.070v-68.26h-273.070v68.26zM409.6 209.060h409.6v-68.26h-409.6v68.26z" />
<glyph unicode="&#xe940;" glyph-name="Align7, left3" d="M102.4 652.8h819.2v-68.27h-819.2v68.27zM102.4 482.13h614.4v-68.27h-614.4v68.27zM102.4 311.46h409.6v-68.26h-409.6v68.26z" />
<glyph unicode="&#xe941;" glyph-name="Align8, vertical, bottom" d="M204.8 209.050h614.4v-68.27h-614.4v68.27zM477.87 311.45v409.641c0 18.76-15.37 34.13-34.14 34.13h-136.53c-18.77 0-34.13-15.37-34.13-34.13v-409.641c0-18.76 15.36-34.13 34.13-34.13h136.53c18.77 0 34.14 15.37 34.14 34.13zM341.33 345.59v341.361h68.27v-341.361h-68.27zM580.27 277.32c-18.77 0-34.14 15.37-34.14 34.13v273.101c0 18.77 15.37 34.14 34.14 34.14h136.53c18.77 0 34.13-15.37 34.13-34.14v-273.101c0-18.76-15.36-34.13-34.13-34.13h-136.53z" />
<glyph unicode="&#xe942;" glyph-name="Align9, vertical2, center3" d="M546.13 652.8v-170.67h-68.26v102.4c0 18.77-15.37 34.13-34.14 34.13h-136.53c-18.77 0-34.13-15.36-34.13-34.13v-102.4h-68.27v-68.27h68.27v-102.4c0-18.76 15.36-34.13 34.13-34.13h136.53c18.77 0 34.14 15.37 34.14 34.13v102.4h68.26v-170.66c0-18.77 15.37-34.13 34.14-34.13h136.53c18.77 0 34.13 15.36 34.13 34.13v170.66h68.27v68.27h-68.27v170.67c0 18.76-15.36 34.13-34.13 34.13h-136.53c-18.77 0-34.14-15.37-34.14-34.13zM682.67 618.66v-341.33h-68.27v341.33h68.27z" />
<glyph unicode="&#xe943;" glyph-name="Align10, vertical3, top" d="M204.8 755.2h614.4v-68.27h-614.4v68.27zM546.13 584.53v-409.6c0-18.76 15.37-34.13 34.14-34.13h136.53c18.77 0 34.13 15.37 34.13 34.13v409.6c0 18.77-15.36 34.14-34.13 34.14h-136.53c-18.77 0-34.14-15.37-34.14-34.14zM682.67 550.4v-341.33h-68.27v341.33h68.27zM443.73 618.67c18.77 0 34.14-15.37 34.14-34.14v-273.060c0-18.77-15.37-34.14-34.14-34.14h-136.53c-18.77 0-34.13 15.37-34.13 34.14v273.060c0 18.77 15.36 34.14 34.13 34.14h136.53z" />
<glyph unicode="&#xe944;" glyph-name="Align11, without" d="M204.8 755.2h477.87v-68.27h-477.87v68.27zM341.33 618.67h477.87v-68.27h-477.87v68.27zM204.8 482.13h477.87v-68.27h-477.87v68.27zM341.33 345.6h477.87v-68.26h-477.87v68.26zM204.8 209.060h477.87v-68.26h-477.87v68.26z" />
<glyph unicode="&#xe945;" glyph-name="Ambulance, van, auto" d="M443.73 721.070v-68.27h-68.26v68.27h-68.27v-68.27l-68.27-170.66-136.53-34.14v-204.8h108.667c14.1-39.7 51.599-68.27 96.133-68.27s82.033 28.57 96.133 68.27h217.344c14.131-39.7 51.63-68.27 96.133-68.27 44.534 0 82.002 28.57 96.133 68.27h108.657v477.87h-477.87zM307.2 243.2c-18.801 0-34.13 15.299-34.13 34.13 0 18.842 15.329 34.14 34.13 34.14s34.13-15.299 34.13-34.14c0-18.831-15.329-34.13-34.13-34.13zM443.73 311.47h-40.397c-14.1 39.7-51.599 68.26-96.133 68.26s-82.033-28.559-96.133-68.26h-40.397v83.231l76.657 19.169h196.403v-102.4zM443.73 482.14h-131.256l40.929 102.4h90.327v-102.4zM716.8 243.2c-18.831 0-34.13 15.299-34.13 34.13 0 18.842 15.299 34.14 34.13 34.14s34.13-15.299 34.13-34.14c0-18.831-15.299-34.13-34.13-34.13zM853.33 311.47h-40.397c-14.131 39.7-51.63 68.26-96.133 68.26s-82.002-28.559-96.133-68.26h-108.667v341.33h341.33v-341.33zM768 541.87h-59.668v59.73h-51.2v-59.73h-59.802v-51.2h59.802v-59.73h51.2v59.73h59.668z" />
<glyph unicode="&#xe946;" glyph-name="Ambulance2" d="M597.35 362.67h-51.2v51.2h-68.26v-51.2h-51.2v-68.27h51.2v-51.2h68.26v51.2h51.2zM341.35 328.499c0-18.801-15.258-34.099-34.13-34.099s-34.13 15.299-34.13 34.099c0 18.872 15.258 34.171 34.13 34.171s34.13-15.299 34.13-34.171zM750.95 328.499c0-18.801-15.299-34.099-34.13-34.099-18.872 0-34.13 15.299-34.13 34.099 0 18.872 15.258 34.171 34.13 34.171 18.831 0 34.13-15.299 34.13-34.171zM785.091 755.2h-68.27v68.27h-68.27v-68.27h-85.33v51.2c0 28.262-22.927 51.2-51.2 51.2s-51.2-22.938-51.2-51.2v-51.2h-85.33v68.27h-68.27v-68.27h-68.301c-37.704 0-68.27-30.597-68.27-68.27v-614.4c0-18.801 15.37-34.13 34.14-34.13h68.26c18.77 0 34.14 15.329 34.14 34.13v68.27h409.631v-68.27c0-18.801 15.37-34.13 34.13-34.13h68.27c18.77 0 34.13 15.329 34.13 34.13v614.4c0 37.734-30.556 68.27-68.26 68.27zM238.92 686.93h238.971v-170.67h-238.971v170.67zM785.050 209.070h-546.13v238.93h546.13v-238.93zM785.050 516.27h-238.899v170.66h238.899v-170.66z" />
<glyph unicode="&#xe947;" glyph-name="Anchor" d="M750.93 311.47v-34.14h68.27v-34.13c0-75.428-61.133-136.53-136.53-136.53s-136.54 61.102-136.54 136.53v136.53h102.4v68.27h-102.4v141.373c58.767 15.227 102.4 68.168 102.4 131.697 0 75.397-61.164 136.53-136.53 136.53-75.397 0-136.53-61.133-136.53-136.53 0-63.529 43.633-116.47 102.4-131.697v-141.373h-102.4v-68.27h102.4v-136.53c0-75.428-61.102-136.53-136.54-136.53-75.397 0-136.53 61.102-136.53 136.53v34.13h68.27v34.14l-136.54 102.4v-170.67c0-113.132 91.699-204.8 204.8-204.8 71.301 0 134.001 36.434 170.67 91.668 36.669-55.235 99.369-91.668 170.67-91.668 113.132 0 204.8 91.668 204.8 204.8v170.67l-136.54-102.4zM512 652.8c-37.704 0-68.27 30.566-68.27 68.27s30.566 68.27 68.27 68.27c37.673 0 68.27-30.566 68.27-68.27s-30.597-68.27-68.27-68.27z" />
<glyph unicode="&#xe948;" glyph-name="Android" d="M477.86 686.93c0-18.849-15.28-34.13-34.13-34.13s-34.13 15.28-34.13 34.13c0 18.849 15.28 34.13 34.13 34.13s34.13-15.28 34.13-34.13zM614.4 686.93c0-18.849-15.28-34.13-34.13-34.13s-34.13 15.28-34.13 34.13c0 18.849 15.28 34.13 34.13 34.13s34.13-15.28 34.13-34.13zM170.67 550.4h68.26v-307.2h-68.26v307.2zM785.070 550.4h68.26v-307.2h-68.26v307.2zM512 857.6c-131.932 0-238.93-106.998-238.93-238.94v-375.46c0-37.54 30.73-68.26 68.26-68.26h34.14v-136.54h68.26v136.54h136.54v-136.54h68.26v136.54h34.14c37.53 0 68.26 30.72 68.26 68.26v375.46c0 131.942-106.926 238.94-238.93 238.94zM512 789.33c94.095 0 170.67-76.575 170.67-170.67h-341.34c0 94.106 76.575 170.67 170.67 170.67zM682.67 243.2h-341.34v307.2h341.34v-307.2z" />
<glyph unicode="&#xe949;" glyph-name="Apple, food" d="M648.561 652.8c-37.417 0-72.223-10.486-102.4-28.088v19.825c0 36.465 14.203 70.728 39.997 96.532l-48.261 48.271c-37.069-37.069-59.996-88.269-59.996-144.804v-19.835c-30.167 17.603-64.993 28.099-102.461 28.099-113.070 0-204.8-91.699-204.8-204.8l0.072-68.26c-0.010-188.498 152.822-341.34 341.32-341.34 188.508 0 341.33 152.842 341.33 341.34v68.26c0 113.101-91.699 204.8-204.8 204.8zM785.101 379.74c0-150.579-122.501-273.080-273.070-273.080s-273.070 122.501-273.070 273.080l-0.061 68.311c0 75.233 61.256 136.489 136.53 136.489 33.526 0 65.802-12.431 90.972-35l45.558-40.919 45.64 40.899c25.16 22.589 57.457 35.021 90.962 35.021 75.305 0 136.54-61.245 136.54-136.53v-68.27zM273.101 857.6c94.259 0 170.66-76.462 170.66-170.67-94.259 0-170.66 76.472-170.66 170.67z" />
<glyph unicode="&#xe94a;" glyph-name="Apple2, logo" d="M706.499 857.6c0-103.67-84.101-187.668-187.771-187.73 0 103.69 84.070 187.73 187.771 187.73zM692.767 422.4c0 66.54 48.026 123.064 115.128 144.404-42.496 52.634-104.192 85.996-173.128 85.996-44.636 0-91.443-25.805-91.443-25.805-13.527-7.465-35.656-7.465-49.203 0 0 0-46.797 25.805-91.433 25.805-128.133 0-232.069-114.596-232.028-256 0-197.796 90.86-358.4 203.028-358.4 53.699 0 119.501 31.068 119.501 31.068 14.070 6.656 37.069 6.656 51.098 0 0 0 65.772-31.068 119.47-31.068 86.702 0 160.43 96.072 189.563 231.004-89.815 6.052-160.553 72.192-160.553 152.996zM663.767 106.67c-29 0-73.37 16.527-90.296 24.535-20.173 9.544-40.868 11.54-54.743 11.54-13.804 0-34.529-1.997-54.661-11.54-20.265-9.472-62.802-24.535-90.368-24.535-63.631 0-134.769 124.068-134.769 290.13 0 51.405 17.838 99.4 50.268 135.168 30.73 33.905 71.035 52.572 113.5 52.572 22.272 0 52.234-13.865 58.501-17.336 21.074-11.602 42.926-14.070 57.528-14.070s36.444 2.468 57.539 14.070c12.257 6.605 39.301 17.336 58.501 17.336 19.026 0 37.53-3.738 54.897-10.875-40.94-40.202-65.167-93.87-65.167-151.265 0-89.139 58.604-167.26 143.135-202.26-26.296-67.676-66.458-113.469-103.864-113.469z" />
<glyph unicode="&#xe94b;" glyph-name="Apricot" d="M614.4 721.070c-24.033 0-47.227-4.168-69.396-11.53-5.376 57.61-30.904 109.373-69.601 148.060l-48.271-48.261c27.044-27.023 43.336-61.532 48.404-98.724-21.125 6.584-43.131 10.455-65.925 10.455-150.804 0-273.070-152.832-273.070-341.33-0.010-188.498 122.255-341.34 273.060-341.34 36.301 0 70.728 9.339 102.4 25.436 31.631-16.179 66.099-25.436 102.4-25.436 150.804 0 273.070 152.842 273.070 341.34s-122.266 341.33-273.070 341.33zM614.4 106.66c-12.534 0-24.771 1.597-36.669 4.577 16.599 16.302 31.775 34.796 44.974 55.398l-49.5 49.5c-37.407-66.294-96.737-109.476-163.604-109.476-112.927 0-204.8 122.501-204.8 273.080 0 150.559 91.873 273.060 204.8 273.060s204.8-122.501 204.8-273.060h68.27c0 109.097-41.103 206.029-104.868 268.513 11.868 2.949 24.095 4.547 36.598 4.547 112.927 0 204.8-122.501 204.8-273.060 0-150.579-91.873-273.080-204.8-273.080z" />
<glyph unicode="&#xe94c;" glyph-name="Aquarium" d="M682.67 413.87l-63.345-42.24c-84.726 63.724-202.26 55.224-277.996-26.030 75.704-81.203 193.198-89.805 277.975-26.030l63.365-42.24v136.54zM738.232 823.47h-452.465c-110.469-73.37-183.368-198.799-183.368-341.33 0-226.243 183.398-409.61 409.6-409.61 226.232 0 409.6 183.368 409.6 409.61 0 142.531-72.899 267.96-183.368 341.33zM307.405 755.2h409.19c38.4-28.785 69.274-65.065 92.232-105.708-102.359 9.677-204.196-6.021-296.827-44.39-102.932-42.598-217.17-57.16-330.926-40.049 18.852 75.315 62.925 142.612 126.331 190.147zM512 140.8c-188.201 0-341.33 153.129-341.33 341.34 0 5.048 0.655 10.004 0.86 15.012 33.669-5.233 67.543-8.212 101.468-8.212 89.805 0 179.599 17.705 265.134 53.105 96.799 40.11 200.438 51.313 301.271 34.714 8.796-30.413 13.926-62.095 13.926-94.607 0-188.221-153.129-341.35-341.33-341.35z" />
<glyph unicode="&#xe94d;" glyph-name="Armchair, 022" d="M785.070 413.86c0 245.043-122.296 443.74-273.070 443.74s-273.070-198.697-273.070-443.74c0-87.020 104.274-158.659 238.94-169.196v-105.462c-55.204-3.738-110.070-15.944-162.673-37.745l26.132-63.058c105.472 43.704 227.574 47.104 341.34 0l26.102 63.058c-52.603 21.801-107.438 34.038-162.642 37.745v105.462c134.636 10.537 238.94 82.176 238.94 169.196zM512 789.33c93.204 0 196.372-143.002 204.073-350.894-136.899 40.991-278.344 38.595-408.136-0.236 7.588 208.036 110.797 351.13 204.063 351.13zM327.127 372.859c120.996 36.403 248.668 36.403 369.736 0-32.236-33.556-100.844-61.399-184.873-61.399-84.060 0-152.658 27.843-184.863 61.399z" />
<glyph unicode="&#xe94e;" glyph-name="Armchair2, barbershop" d="M785.070 618.67v-136.54l0.031-0.031h-0.031c0-37.704-30.566-68.27-68.27-68.27v307.241c0 37.734-30.525 68.27-68.27 68.27h-34.13c0 37.56-30.73 68.26-68.27 68.26h-68.26c-37.54 0-68.27-30.73-68.27-68.27h-34.13c-37.704 0-68.27-30.536-68.27-68.27v-307.2c-37.704 0-68.27 30.556-68.27 68.26v136.55h-102.4v-68.27h34.14v-68.27c0-75.397 61.133-136.53 136.53-136.53v-136.53h170.67v-102.4h-102.4v-68.27h273.060v68.27h-102.4v102.4h170.67v136.499c75.397 0 136.53 61.133 136.53 136.53h-0.031l0.031 0.031v68.27h34.14v68.27h-102.4zM477.87 789.33h68.26v-68.27h-68.26v68.27zM648.53 277.33h-273.060v68.27l273.060-0.031v-68.239zM648.53 413.829l-273.060 0.041v307.2h34.13c0-37.54 30.73-68.27 68.27-68.27h68.26c37.54 0 68.27 30.73 68.27 68.27h34.13v-307.241z" />
<glyph unicode="&#xe94f;" glyph-name="Armchair3, chair" d="M819.2 413.86c0 18.678-5.366 35.942-14.1 51.005l-204.8 341.32c-17.695 30.597-50.432 51.415-88.3 51.415s-70.605-20.818-88.3-51.405l-204.8-341.33c-8.735-15.063-14.1-32.328-14.1-51.005 0-56.525 45.865-102.4 102.4-102.4h34.13l-68.26-273.060h70.359l34.14 136.53h268.861l34.14-136.53h70.359l-68.26 273.060h34.13c56.535 0 102.4 45.875 102.4 102.4zM394.629 243.2l17.070 68.26h200.602l17.070-68.26h-234.742zM307.2 379.74c-18.801 0-34.13 15.299-34.13 34.12 0 5.519 1.659 11.182 4.905 16.783l204.257 340.449c6.84 11.766 17.766 18.248 29.768 18.248s22.927-6.482 29.204-17.336l205.373-342.252c2.734-4.71 4.362-10.373 4.362-15.892 0-18.821-15.299-34.12-34.13-34.12h-409.61zM375.47 499.2h273.060v-68.26h-273.060v68.26z" />
<glyph unicode="&#xe950;" glyph-name="Armchair4" d="M750.93 516.26v-116.019h-0.061l0.061 0.164c-11.305 4.659-22.733 8.202-34.13 12.145v342.651c0 56.535-45.865 102.4-102.4 102.4h-204.8c-56.535 0-102.4-45.865-102.4-102.4v-342.702c-11.397-3.963-22.968-7.639-34.13-12.257v116.019h-68.27v-204.8c0-37.704 30.566-68.26 68.27-68.26h204.8v-136.53h-68.27c-37.704 0-68.27-30.566-68.27-68.27h341.34c0 37.704-30.566 68.301-68.27 68.301h-68.27v136.499h204.8c37.704 0 68.27 30.556 68.27 68.26v204.8h-68.27zM375.47 755.2c0 18.842 15.329 34.14 34.13 34.14h204.8c18.831 0 34.13-15.299 34.13-34.14v-34.14h-273.060v34.14zM375.47 652.759h273.060v-220.559c-91.802 20.664-184.801 19.937-273.060 0.041v220.518zM750.93 311.46h-477.86v14.879l26.132 10.824c68.198 28.242 139.971 42.578 213.33 42.578 72.899 0 144.302-14.285 212.296-42.404l26.102-10.844v-15.032z" />
<glyph unicode="&#xe951;" glyph-name="Arrow, down, download" d="M343.030 432.138l144.845-144.804c13.332-13.343 34.959-13.343 48.261 0l144.845 144.804-48.302 48.261-86.538-86.538v361.339h-68.26v-361.339l-86.569 86.538-48.282-48.261zM750.93 345.6v-136.54h-477.86v136.54h-68.27v-136.54c0-37.519 30.73-68.26 68.27-68.26h477.86c37.54 0 68.27 30.74 68.27 68.26v136.54h-68.27z" />
<glyph unicode="&#xe952;" glyph-name="Arrow2, down2" d="M632.668 343.869l-86.538-86.528v497.859h-68.26v-497.859l-86.569 86.528-48.271-48.261 144.845-144.804c13.332-13.343 34.959-13.343 48.261 0l144.845 144.804-48.312 48.261z" />
<glyph unicode="&#xe953;" glyph-name="Arrow3, extract, interface" d="M680.97 600.392l-144.845 144.804c-13.332 13.332-34.959 13.332-48.261 0l-144.835-144.804 48.302-48.261 86.538 86.528v-361.329h68.26v361.329l86.569-86.528 48.271 48.261zM750.93 345.6v-136.54h-477.86v136.54h-68.27v-136.54c0-37.53 30.73-68.26 68.27-68.26h477.86c37.54 0 68.27 30.73 68.27 68.26v136.54h-68.27z" />
<glyph unicode="&#xe954;" glyph-name="Arrow4, inside, from-above" d="M819.2 721.050h-273.080v136.53h-68.27v-136.53h-273.050c-18.76 0-34.13-15.36-34.13-34.13v-614.369c0-18.77 15.37-34.13 34.13-34.13h614.4c18.78 0 34.14 15.36 34.14 34.13v614.369c0 18.77-15.36 34.13-34.14 34.13zM785.080 106.68h-546.15v546.109h238.93v-293.048l-122.409 122.388-48.251-48.261 180.664-180.664c13.332-13.343 34.929-13.343 48.261-0.041l180.664 180.664-48.261 48.271-122.409-122.358v293.048h238.961v-546.109z" />
<glyph unicode="&#xe955;" glyph-name="Arrow5, inside2, from-below" d="M204.78 174.94h273.101v-136.54h68.229v136.54h273.070c18.801 0 34.13 15.36 34.13 34.12l0.041 614.4c0 18.77-15.37 34.13-34.14 34.13h-614.431c-18.801 0-34.13-15.36-34.13-34.13v-614.4c0-18.76 15.329-34.12 34.13-34.12zM238.909 789.33h546.171l-0.031-546.13h-238.899v293.069l122.358-122.409 48.271 48.271-180.634 180.664c-13.343 13.332-34.939 13.332-48.271 0.031l-180.695-180.664 48.271-48.261 122.429 122.368v-293.069h-238.971v546.13z" />
<glyph unicode="&#xe956;" glyph-name="Arrow6, left4, circle7" d="M512 857.6c-226.202 0-409.6-183.388-409.6-409.6 0-226.202 183.398-409.6 409.6-409.6s409.6 183.398 409.6 409.6c0 226.212-183.398 409.6-409.6 409.6zM512 106.67c-188.529 0-341.33 152.832-341.33 341.33 0 188.518 152.801 341.33 341.33 341.33 176.998 0 322.468-134.717 339.599-307.2h-461.998l88.269 88.269-48.271 48.261-146.534-146.534c-13.343-13.302-13.343-34.939 0-48.271l146.534-146.534 48.271 48.241-88.269 88.289h461.998c-17.132-172.452-162.601-307.18-339.599-307.18z" />
<glyph unicode="&#xe957;" glyph-name="Arrow7, left5, up" d="M873.196 652.8l48.404-48.189-337.326-331.407c-39.997-39.956-104.796-40.038-144.804 0l-268.8 263.066v-122.409h-68.27v204.79c0 18.831 15.299 34.13 34.13 34.13l204.8-0.020v-68.229h-122.399l268.8-263.096c13.343-13.343 34.939-13.302 48.271 0l337.193 331.366z" />
<glyph unicode="&#xe958;" glyph-name="Arrow8, left6" d="M682.67 857.6h-341.34c-75.1 0-136.53-61.44-136.53-136.53v-546.13c0-75.11 61.43-136.54 136.53-136.54h341.34c75.1 0 136.53 61.43 136.53 136.53v546.14c0 75.090-61.43 136.53-136.53 136.53zM682.67 106.67h-341.34c-37.663 0-68.26 30.628-68.26 68.26v546.14c0 37.652 30.597 68.27 68.26 68.27h341.34c37.632 0 68.26-30.618 68.26-68.27v-238.93h-293.028l88.269 88.269-48.271 48.261-146.534-146.534c-13.343-13.302-13.343-34.939 0-48.271l146.534-146.534 48.271 48.241-88.269 88.289h293.028v-238.93c0-37.632-30.628-68.26-68.26-68.26z" />
<glyph unicode="&#xe959;" glyph-name="Arrow9, mixing, interface2" d="M809.257 642.796l-112.394 112.404-36.198-36.198 74.732-74.742h-61.266c-19.896 0-47.729-11.53-61.798-25.6-14.060-14.060-305.101-305.132-305.101-305.132-4.465-4.475-19.302-10.598-25.6-10.598h-76.831v-51.2c0 0 56.934 0 76.831 0s47.698 11.53 61.798 25.6 305.142 305.132 305.142 305.132c4.434 4.475 19.261 10.598 25.559 10.598h61.266l-74.732-74.732 36.198-36.198 112.394 112.404c13.261 13.261 13.261 35 0 48.261zM809.257 301.455l-112.394 112.404-36.198-36.198 74.732-74.732h-61.266c-6.298 0-21.125 6.134-25.559 10.598l-98.273 98.273-36.229-36.239c36.7-36.659 89.262-89.231 98.263-98.232 14.070-14.070 41.902-25.6 61.798-25.6h61.266l-74.732-74.732 36.198-36.198 112.404 112.404c13.251 13.251 13.251 35-0.010 48.251zM307.22 582.461l98.243-98.263 36.198 36.198c-36.669 36.659-89.201 89.262-98.243 98.263-14.1 14.070-41.902 25.6-61.798 25.6s-76.831 0-76.831 0v-51.2h76.831c6.298 0 21.135-6.134 25.6-10.598z" />
<glyph unicode="&#xe95a;" glyph-name="Arrow10, right2, circle8" d="M512 857.6c-226.202 0-409.6-183.398-409.6-409.6s183.398-409.6 409.6-409.6 409.6 183.398 409.6 409.6-183.398 409.6-409.6 409.6zM512 106.67c-176.998 0-322.468 134.728-339.599 307.19h461.998l-88.269-88.259 48.271-48.271 146.534 146.534c13.343 13.302 13.343 34.939 0 48.271l-146.534 146.534-48.271-48.23 88.269-88.3h-461.998c17.132 172.462 162.601 307.2 339.599 307.2 188.529 0 341.33-152.832 341.33-341.33 0-188.539-152.801-341.34-341.33-341.34z" />
<glyph unicode="&#xe95b;" glyph-name="Arrow11, right3, up2" d="M150.804 652.8l-48.404-48.2 337.326-331.397c39.997-39.956 104.796-40.038 144.804 0l268.8 263.066v-122.409h68.27v204.8c0 18.801-15.299 34.14-34.13 34.14l-204.8-0.031v-68.229h122.399l-268.8-263.096c-13.343-13.343-34.939-13.302-48.271 0l-337.193 331.356z" />
<glyph unicode="&#xe95c;" glyph-name="Arrow12, right4" d="M682.66 291.471l122.399 122.399h-702.659v68.27h702.659l-122.358 122.399 48.261 48.261 180.675-180.664c13.302-13.332 13.302-34.939-0.031-48.261l-180.675-180.675-48.271 48.271z" />
<glyph unicode="&#xe95d;" glyph-name="Arrow13, rotation, control" d="M503.214 755.2c-87.071 0-165.468-36.332-221.368-94.536l-0.031 94.536h-68.229v-176.466c0-18.862 15.299-34.13 34.099-34.13l0.031-0.031 176.497 0.031v68.198h-93.727c43.53 45.599 104.735 74.127 172.728 74.127 131.922 0 238.93-106.967 238.93-238.93 0-131.942-106.998-238.94-238.93-238.94-65.966 0-125.696 26.737-168.929 70.001l-48.302-48.261c55.603-55.603 132.403-89.999 217.231-89.999 169.667 0 307.2 137.533 307.2 307.2 0.010 169.667-137.533 307.2-307.2 307.2z" />
<glyph unicode="&#xe95e;" glyph-name="Arrow14, rotation2, interface3" d="M256.502 544.604l0.031-0.031 176.466 0.031v68.198h-93.696c43.5 45.599 104.704 74.138 172.698 74.138 131.932 0 238.93-106.967 238.93-238.93h68.27c0 169.667-137.533 307.2-307.2 307.2-87.030 0-165.468-36.362-221.327-94.536l-0.041 94.525h-68.229v-176.466c0-18.872 15.268-34.13 34.099-34.13zM767.468 351.396v0.031l-176.466-0.031v-68.198h93.665c-43.469-45.599-104.663-74.127-172.667-74.127-131.932 0-238.93 106.957-238.93 238.93h-68.27c0-169.667 137.533-307.2 307.2-307.2 86.999 0 165.468 36.372 221.327 94.525v-94.525h68.27v176.466c0 18.862-15.268 34.13-34.13 34.13z" />
<glyph unicode="&#xe95f;" glyph-name="Arrow15, stretch, interface4" d="M785.070 755.2h-204.8v-68.27h122.399l-429.599-429.588-0.041 122.399h-68.229v-204.8c0-18.883 15.299-34.14 34.13-34.14h204.8v68.26h-122.399l429.599 429.609 0.041-122.399h68.229v204.8c0 18.79-15.299 34.13-34.13 34.13z" />
<glyph unicode="&#xe960;" glyph-name="Arrow16, turn, back" d="M648.53 686.94h-170.66v-68.27h170.66c56.566 0 102.4-45.834 102.4-102.4s-45.834-102.4-102.4-102.4h-327.199l88.269 88.269-48.271 48.261-146.534-146.534c-13.332-13.332-13.332-34.929 0-48.271l146.534-146.545 48.271 48.292-88.269 88.259h327.199c94.269 0 170.67 76.401 170.67 170.67s-76.401 170.67-170.67 170.67z" />
<glyph unicode="&#xe961;" glyph-name="Arrow17, turn2, left7" d="M341.33 618.67v0h-19.999l88.269 88.269-48.271 48.261-146.534-146.534c-13.332-13.302-13.332-34.929 0-48.261l146.534-146.545 48.271 48.271-88.269 88.269h19.999c226.273 0 409.539-183.46 409.6-409.6h68.27c-0.072 263.844-213.903 477.87-477.87 477.87z" />
<glyph unicode="&#xe962;" glyph-name="Arrow18, turn3, top2" d="M674.396 745.196c-13.332 13.332-35 13.332-48.271 0l-144.855-144.794 48.333-48.261 86.528 86.528v-361.329c0-37.745-30.597-68.28-68.26-68.28h-343.071v-68.26h343.071c75.356 0 136.53 61.102 136.53 136.54v361.329l86.528-86.528 48.271 48.261-144.804 144.794z" />
<glyph unicode="&#xe963;" glyph-name="Arrows, cycle" d="M321.331 510.403l166.543 166.533c13.332 13.343 34.929 13.343 48.261 0l160.666-160.655h-82.401v-68.28h170.67c18.801 0 34.13 15.299 34.13 34.13v170.67h-68.27v-94.126l-166.533 166.523c-39.967 39.997-104.827 39.997-144.804 0l-166.523-166.523 48.261-48.271zM702.669 385.597l-166.543-166.523c-13.332-13.343-34.929-13.343-48.261 0l-160.666 160.655h82.401v68.27h-170.67c-18.801 0-34.13-15.299-34.13-34.13v-170.67h68.27v94.126l166.533-166.523c39.967-39.997 104.827-39.997 144.804 0l166.533 166.533-48.271 48.261z" />
<glyph unicode="&#xe964;" glyph-name="Arrows2, down3, top3, move" d="M204.8 295.598l144.835-144.804c13.343-13.332 34.97-13.332 48.271 0l144.835 144.804-48.302 48.271-86.528-86.528v497.859h-68.27v-497.859l-86.559 86.528-48.282-48.271zM819.2 600.402l-144.835 144.794c-13.343 13.332-34.97 13.332-48.271 0l-144.824-144.794 48.302-48.261 86.528 86.528v-497.869h68.27v497.869l86.559-86.528 48.271 48.261z" />
<glyph unicode="&#xe965;" glyph-name="Arrows3, move2, position" d="M809.196 472.095l-108.595 108.667-48.271-48.261 50.34-50.401h-156.57l0.031 156.6 50.401-50.299 48.2 48.23-108.605 108.595c-13.261 13.302-34.929 13.302-48.2 0l-108.657-108.595 48.261-48.302 50.401 50.33-0.031-156.529h-156.6l50.299 50.432-48.2 48.2-108.595-108.636c-13.332-13.271-13.332-34.929 0-48.2l108.595-108.667 48.271 48.271-50.34 50.401h156.539v-156.6l-50.401 50.299-48.2-48.23 108.595-108.595c13.261-13.343 34.929-13.343 48.2 0l108.657 108.595-48.261 48.261-50.401-50.33v156.57h156.611l-50.299-50.442 48.23-48.2 108.595 108.636c13.332 13.261 13.332 34.939 0 48.2z" />
<glyph unicode="&#xe966;" glyph-name="Arrows4, move3" d="M750.971 516.27h68.229v204.8c0 18.831-15.299 34.13-34.13 34.13h-204.8v-68.27h122.399l-190.669-190.669-190.669 190.669 122.399 0.031v68.239h-204.8c-18.831 0-34.13-15.299-34.13-34.13v-204.8h68.27v122.399l190.659-190.669-190.659-190.659-0.041 122.399h-68.229v-204.8c0-18.842 15.299-34.14 34.13-34.14h204.8v68.26h-122.399l190.669 190.679 190.669-190.679-122.399-0.020v-68.239h204.8c18.831 0 34.13 15.299 34.13 34.14v204.8h-68.27v-122.399l-190.659 190.659 190.659 190.7 0.041-122.429z" />
<glyph unicode="&#xe967;" glyph-name="Arrows5, one-around-other" d="M665.569 499.2h-85.299v-51.2h85.33v-153.6h-307.2v153.6h69.796l-40.571-40.602 36.209-36.198 78.244 78.264c13.261 13.271 13.261 35 0 48.271l-78.244 78.264-36.198-36.239 40.561-40.561h-69.796c-28.334 0-51.2-22.938-51.2-51.2v-153.6c0-28.303 22.897-51.2 51.2-51.2h307.169c28.303 0 51.2 22.938 51.2 51.2v153.6c0 28.303-22.938 51.2-51.2 51.2zM768 678.4h-172.196l40.571 40.602-36.209 36.198-78.244-78.264c-13.261-13.271-13.261-35 0-48.271l78.244-78.264 36.198 36.198-40.561 40.602h172.196v-435.2h-512v435.2h187.73v51.2h-187.73c-28.273 0-51.2-22.938-51.2-51.2v-435.2c0-28.262 22.927-51.2 51.2-51.2h512c28.273 0 51.2 22.938 51.2 51.2v435.2c0 28.262-22.927 51.2-51.2 51.2z" />
<glyph unicode="&#xe968;" glyph-name="Arrows6, reduce" d="M604.396 184.924v122.399l166.533-166.543 48.271 48.271-166.533 166.533 122.399 0.041v68.26l-204.8-0.031c-18.842 0-34.14-15.299-34.14-34.13v-204.8h68.27zM204.8 706.949l166.533-166.533-122.399-0.041v-68.229h204.8c18.801 0 34.14 15.299 34.14 34.13v204.841l-68.301-0.041 0.031-122.358-166.533 166.502-48.271-48.271z" />
<glyph unicode="&#xe969;" glyph-name="Arrows7, stretch2" d="M750.93 379.75v-122.399l-166.533 166.533-48.271-48.261 166.543-166.543-122.399-0.031v-68.27l204.8 0.041c18.831 0 34.13 15.299 34.13 34.13v204.8h-68.27zM487.875 520.417l-166.543 166.533 122.399 0.031v68.239h-204.8c-18.831 0-34.13-15.299-34.13-34.14v-204.8h68.27v122.399l166.533-166.533 48.271 48.271z" />
<glyph unicode="&#xe96a;" glyph-name="Arrows8, width" d="M809.196 472.146l-120.668 120.678-48.302-48.271 62.444-62.433h-381.338l62.403 62.433-48.261 48.271-120.668-120.678c-13.332-13.332-13.332-34.97 0-48.302l120.668-120.668 48.302 48.271-62.444 62.433h381.338l-62.403-62.433 48.261-48.271 120.668 120.668c13.332 13.332 13.332 34.98 0 48.302z" />
<glyph unicode="&#xe96b;" glyph-name="Atom, molecule" d="M839.404 448c89.989 150.17 110.694 294.676 38.994 366.377-71.741 71.741-216.269 51.046-366.397-38.943-150.129 89.969-294.656 110.664-366.387 38.932-71.7-71.7-50.995-216.248 38.973-366.356-89.979-150.149-110.705-294.666-38.973-366.408 71.731-71.7 216.259-50.995 366.387 38.973 150.17-89.999 294.656-110.674 366.387-38.973 71.7 71.741 51.046 216.228-38.984 366.397zM758.057 789.432c32.297 0 56.535-7.864 72.038-23.347 40.694-40.694 28.631-140.175-32.768-254.177-29.399 40.468-63.57 80.66-102.175 119.276-38.687 38.687-78.991 72.899-119.532 102.369 66.048 35.707 129.679 55.88 182.436 55.88zM758.63 448c-30.228-44.831-67.471-90.634-111.759-134.932-42.998-43.028-88.904-80.323-134.871-111.401-45.957 31.089-91.863 68.393-134.892 111.462-44.237 44.227-81.439 89.928-111.626 134.717 31.365 46.5 69.059 92.498 111.585 135.066 43.069 43.028 88.934 80.312 134.932 111.432 45.937-31.119 91.832-68.403 134.871-111.432 44.288-44.298 81.531-90.071 111.759-134.912zM193.935 766.085c15.473 15.483 39.67 23.347 71.997 23.347 52.767 0 116.398-20.183 182.456-55.88-40.591-29.46-80.886-63.683-119.593-102.369-38.605-38.605-72.735-78.797-102.134-119.276-61.379 114.002-73.452 213.484-32.727 254.177zM265.943 106.598c-32.328 0-56.535 7.844-72.028 23.296-28.826 28.836-30.966 91.259-5.765 166.963 9.441 28.201 22.743 57.467 38.636 87.030 29.358-40.387 63.488-80.486 102.031-119.050 38.728-38.697 79.002-72.94 119.593-102.4-66.068-35.697-129.669-55.839-182.467-55.839zM830.095 129.905c-15.503-15.462-39.7-23.327-72.038-23.327-52.756 0-116.388 20.173-182.426 55.869 40.54 29.43 80.845 63.662 119.532 102.318 38.605 38.636 72.765 78.838 102.175 119.296 61.389-114.002 73.452-213.463 32.758-254.157zM512 584.53c-75.397 0-136.53-61.133-136.53-136.53 0-75.438 61.133-136.53 136.53-136.53 75.428 0 136.53 61.102 136.53 136.53 0 75.397-61.102 136.53-136.53 136.53zM512 379.73c-37.704 0-68.26 30.525-68.26 68.27 0 37.704 30.556 68.27 68.26 68.27 37.745 0 68.27-30.566 68.27-68.27 0-37.745-30.525-68.27-68.27-68.27z" />
<glyph unicode="&#xe96c;" glyph-name="Atom2" d="M546.13 448c0-18.849-15.28-34.13-34.13-34.13s-34.13 15.28-34.13 34.13c0 18.849 15.28 34.13 34.13 34.13s34.13-15.28 34.13-34.13zM589.066 580.864c117.555 47.77 197.601 48.937 217.805 37.396-0.072-14.602-16.404-47.268-53.197-88.73 18.227-14.797 35.205-29.87 50.995-45.036 59.064 66.56 84.9 128.768 62.065 168.305-42.404 73.431-235.428 41.37-431.258-71.598 17.428 125.635 56.422 195.533 76.524 207.299 12.595-7.404 32.696-37.868 50.196-90.44l64.532 21.637c-28.129 84.439-69.059 137.902-114.729 137.902-84.797 0-153.528-183.235-153.6-409.303-100.127 77.937-141.128 146.668-141.302 169.933 12.698 7.229 49.132 9.431 103.465-1.7 3.697 23.163 8.264 45.404 13.496 66.662-87.194 17.869-153.958 9.144-176.794-30.392-42.373-73.431 81.9-224.563 277.658-337.664-117.535-47.78-197.56-48.896-217.805-37.376 0.102 14.602 16.435 47.237 53.197 88.678l-50.995 45.056c-59.064-66.56-84.9-128.758-62.065-168.305 42.404-73.441 235.459-41.359 431.258 71.639-17.388-125.686-56.412-195.584-76.513-207.329-12.595 7.363-32.696 37.837-50.227 90.44-21.944-8.376-43.469-15.544-64.502-21.637 28.129-84.439 69.059-137.902 114.729-137.902 84.797 0 153.528 183.204 153.6 409.303 100.127-77.937 141.097-146.657 141.271-169.943-12.698-7.219-49.142-9.4-103.404 1.741l-13.537-66.703c87.204-17.859 153.969-9.144 176.804 30.403 42.363 73.441-81.93 224.604-277.668 337.664zM597.33 448c0-16.855-0.502-32.901-1.198-48.558-13.158-8.438-26.829-16.896-41.462-25.344-14.643-8.438-28.774-16.036-42.67-23.245-13.896 7.199-28.027 14.776-42.67 23.245-14.602 8.438-28.232 16.896-41.431 25.344-0.768 15.596-1.229 31.662-1.229 48.558 0 16.865 0.502 32.932 1.198 48.568 13.199 8.438 26.829 16.896 41.462 25.334 14.643 8.438 28.774 16.036 42.67 23.235 13.865-7.168 28.027-14.797 42.67-23.235 14.602-8.438 28.262-16.896 41.431-25.334 0.727-15.636 1.229-31.703 1.229-48.568z" />
<glyph unicode="&#xe96d;" glyph-name="Attention" d="M911.852 182.825l-362.025 565.064c-20.838 32.502-54.907 32.502-75.776 0l-361.912-565.064c-20.797-32.461-7.137-59.095 30.392-59.095h738.929c37.53 0 51.231 26.644 30.392 59.095zM199.127 192l312.801 488.458 312.965-488.458h-625.766zM477.86 307.456h68.27v-68.26h-68.27v68.26zM477.86 529.326h68.27v-170.67h-68.27v170.67z" />
<glyph unicode="&#xe96e;" glyph-name="Audio-system, speakers, b11" d="M290.13 857.6c-103.66 0-187.73-84.070-187.73-187.73v-238.94c0-91.996 66.273-168.397 153.6-184.463v-139.796h-85.33v-68.27h238.93v68.27h-85.33v139.796c87.327 16.056 153.6 92.457 153.6 184.463v238.94c0 103.66-84.070 187.73-187.74 187.73zM409.6 430.93c0-65.956-53.504-119.46-119.47-119.46-65.956 0-119.46 53.504-119.46 119.46v238.94c0 65.956 53.504 119.46 119.46 119.46 65.966 0 119.47-53.504 119.47-119.46v-238.94zM238.93 669.901c0-28.273 22.938-51.2 51.2-51.2 28.273 0 51.2 22.927 51.2 51.169 0 28.303-22.927 51.231-51.2 51.231-28.262 0-51.2-22.927-51.2-51.2zM358.369 430.93c0-37.693-30.556-68.25-68.25-68.25s-68.25 30.556-68.25 68.25c0 37.693 30.556 68.25 68.25 68.25s68.25-30.556 68.25-68.25zM733.87 857.6c-103.67 0-187.74-84.070-187.74-187.73v-238.94c0-91.996 66.273-168.397 153.6-184.463v-139.796h-85.33v-68.27h238.93v68.27h-85.33v139.796c87.327 16.056 153.6 92.457 153.6 184.463v238.94c0 103.66-84.070 187.73-187.73 187.73zM853.33 430.93c0-65.956-53.504-119.46-119.46-119.46-65.966 0-119.47 53.504-119.47 119.46v238.94c0 65.956 53.504 119.46 119.47 119.46 65.956 0 119.46-53.504 119.46-119.46v-238.94zM682.67 669.901c0-28.273 22.927-51.2 51.2-51.2 28.262 0 51.2 22.927 51.2 51.169 0 28.303-22.938 51.231-51.2 51.231-28.273 0-51.2-22.927-51.2-51.2zM802.099 430.93c0-37.693-30.556-68.25-68.25-68.25s-68.25 30.556-68.25 68.25c0 37.693 30.556 68.25 68.25 68.25s68.25-30.556 68.25-68.25z" />
<glyph unicode="&#xe96f;" glyph-name="Audio-system2, speakers2" d="M477.87 857.6h-341.34c-18.76 0-34.13-15.37-34.13-34.13v-750.94c0-18.76 15.37-34.13 34.13-34.13h341.34c18.76 0 34.13 15.37 34.13 34.13v750.94c0 18.76-15.37 34.13-34.13 34.13zM443.73 106.67h-273.060v682.66h273.060v-682.66zM887.47 550.4h-273.070c-18.77 0-34.13-15.37-34.13-34.13v-443.74c0-18.76 15.36-34.13 34.13-34.13h273.070c18.76 0 34.13 15.37 34.13 34.13v443.74c0 18.76-15.37 34.13-34.13 34.13zM853.33 106.67h-204.8v375.46h204.8v-375.46zM819.2 209.070c0-37.704-30.597-68.27-68.27-68.27-37.663 0-68.26 30.566-68.26 68.27 0 37.663 30.597 68.26 68.26 68.26 37.673 0 68.27-30.597 68.27-68.26zM802.13 379.73c0-28.277-22.923-51.2-51.2-51.2s-51.2 22.923-51.2 51.2c0 28.277 22.923 51.2 51.2 51.2s51.2-22.923 51.2-51.2zM307.2 345.6c-56.535 0-102.4-45.865-102.4-102.4 0-56.566 45.865-102.4 102.4-102.4s102.4 45.834 102.4 102.4c0 56.535-45.865 102.4-102.4 102.4zM307.2 209.070c-18.872 0-34.13 15.258-34.13 34.13 0 18.831 15.258 34.13 34.13 34.13s34.13-15.299 34.13-34.13c0-18.872-15.258-34.13-34.13-34.13zM307.2 584.53c-56.535 0-102.4-45.865-102.4-102.4 0-56.556 45.865-102.4 102.4-102.4s102.4 45.844 102.4 102.4c0 56.535-45.865 102.4-102.4 102.4zM307.2 448c-18.872 0-34.13 15.299-34.13 34.13 0 18.842 15.258 34.14 34.13 34.14s34.13-15.299 34.13-34.14c0-18.831-15.258-34.13-34.13-34.13zM358.4 686.93c0-28.277-22.923-51.2-51.2-51.2s-51.2 22.923-51.2 51.2c0 28.277 22.923 51.2 51.2 51.2s51.2-22.923 51.2-51.2z" />
<glyph unicode="&#xe970;" glyph-name="Auto, car, repair" d="M315.73 345.6c0-23.603-19.128-42.67-42.66-42.67-23.542 0-42.67 19.067-42.67 42.67s19.128 42.67 42.67 42.67c23.532 0 42.66-19.067 42.66-42.67zM819.2 857.6v-156.262c0-37.704-30.566-68.27-68.27-68.27s-68.26 30.566-68.26 68.27v156.262c-32.399-14.182-59.269-38.298-77.466-68.27h-287.273c-28.262 0-53.862-11.469-72.397-30.003-9.4-9.431-16.998-20.695-22.159-33.198l-113.172-273.060c-5.007-12.073-7.803-25.334-7.803-39.209v-238.93h68.27v-102.4c0-18.801 15.36-34.13 34.13-34.13h68.27c18.76 0 34.13 15.329 34.13 34.13v102.4h341.33v-34.13c0-56.535 45.865-102.4 102.4-102.4s102.4 45.865 102.4 102.4v424.765c41.236 31.171 68.27 80.138 68.27 135.772 0 69.96-42.168 129.894-102.4 156.262zM648.53 379.73h-273.060v-68.26h273.060v-68.27h-477.86v170.66c0 4.495 2.796 13.537 2.796 13.537 5.263 12.145 17.265 20.634 31.334 20.634v-0.031h443.73v-68.27zM648.53 516.27h-438.231l76.134 183.736c1.7 4.168 4.239 7.864 7.373 11.069 3.768 3.738 11.868 10.004 24.125 10.004h263.803c-0.727-6.502-1.464-13.025-1.464-19.732 0-55.634 27.064-104.602 68.26-135.772v-49.306zM785.070 140.8c0-18.872-15.268-34.13-34.14-34.13-18.862 0-34.13 15.258-34.13 34.13v375.47h68.27v-375.47z" />
<glyph unicode="&#xe971;" glyph-name="Avocado" d="M778.199 365.763l-87.265 346.307c-16.66 80.067-97.208 145.531-178.934 145.531s-162.273-65.464-178.934-145.531l-87.265-346.307c-37.499-180.019 82.268-327.363 266.199-327.363s303.698 147.343 266.199 327.363zM675.174 177.644c-37.202-45.773-95.171-70.973-163.174-70.973s-125.932 25.201-163.174 70.973c-37.202 45.763-50.063 107.622-36.157 174.203l86.6 343.562c10.732 51.333 63.13 93.932 112.732 93.932s102.001-42.598 112.097-91.167l87.9-349.061c13.23-63.857 0.369-125.716-36.823-171.469zM512 448c-75.397 0-136.53-61.143-136.53-136.54s61.133-136.52 136.53-136.52 136.53 61.123 136.53 136.52-61.133 136.54-136.53 136.54zM512 243.2c-37.673 0-68.27 30.597-68.27 68.26 0 37.745 30.597 68.28 68.27 68.28 37.734 0 68.27-30.536 68.27-68.28 0-37.663-30.536-68.26-68.27-68.26z" />
<glyph unicode="&#xe972;" glyph-name="Axe" d="M853.33 77.496l-225.556 543.488 63.427 26.235-78.531 189.184-63.14-26.071-19.702 47.268-94.659-39.096 19.63-47.268 0.205-0.051-284.334-117.637c51.057-123.146 147.364-213.955 261.632-261.294-28.867 69.775 4.301 149.606 74.025 178.493l26.941 11.151 225.597-543.498 94.464 39.096zM480.174 633.815c-56.996-23.562-97.669-70.001-115.937-124.283-39.26 30.065-72.827 66.949-99.103 109.179l310.538 128.502 26.204-63.068-121.702-50.33z" />
<glyph unicode="&#xe973;" glyph-name="Background" d="M614.4 584.53h-204.8c-18.77 0-34.13-15.37-34.13-34.13v-204.8c0-18.76 15.36-34.14 34.13-34.14h204.8c18.77 0 34.13 15.38 34.13 34.14v204.8c0 18.77-15.36 34.13-34.13 34.13zM580.27 379.74h-136.54v136.53h136.54v-136.53zM716.8 618.67h68.27v-341.33h-68.27v341.33zM853.33 652.8h68.27v-409.6h-68.27v409.6zM238.93 618.67h68.27v-341.33h-68.27v341.33zM102.4 652.8h68.27v-409.6h-68.27v409.6z" />
<glyph unicode="&#xe974;" glyph-name="Backpack" d="M785.070 652.8h68.26c37.54 0 68.27 30.7 68.27 68.27v68.26c0 37.54-30.73 68.27-68.27 68.27h-682.66c-37.54 0-68.27-30.73-68.27-68.27v-68.26c0-37.571 30.73-68.27 68.27-68.27h68.26v-204.8h-136.53v-273.070c0-37.734 30.525-68.26 68.27-68.26h68.26c0-37.54 30.74-68.27 68.27-68.27h409.6c37.53 0 68.27 30.73 68.27 68.27h68.26c37.745 0 68.27 30.525 68.27 68.26v273.070h-136.53v204.8zM238.93 174.93h-68.26v204.8h68.26v-204.8zM307.2 721.070v68.26h409.6v-68.26h-409.6zM853.33 721.070h-68.26v68.26h68.26v-68.26zM170.67 721.070v68.26h68.26v-68.26h-68.26zM307.2 652.8h409.6v-77.466c-124.969-78.326-284.733-78.326-409.6 0v77.466zM307.2 106.67v68.26h409.6v-68.26h-409.6zM853.33 379.73v-204.8h-68.26v204.8h68.26zM716.8 243.2h-409.6v254.075c52.797-26.941 110.469-43.397 170.67-47.872v-69.673h68.26v69.642c60.17 4.495 117.873 20.961 170.67 47.903v-254.075z" />
<glyph unicode="&#xe975;" glyph-name="Baclpack, bag" d="M375.46 379.73v-136.53c0-37.704 30.525-68.27 68.26-68.27l136.54-0.031c37.704 0 68.26 30.556 68.26 68.26v136.571h-273.060zM580.26 243.159l-136.54 0.041v68.26h136.54v-68.301zM818.094 139.663l-72.069 480.123c-8.325 55.695-61.256 101.274-117.555 101.274l-14.070 0.010v34.13c0 56.545-45.865 102.4-102.4 102.4s-102.4-45.855-102.4-102.4v-34.15h-14.070c-56.33 0-109.23-45.568-117.596-101.274l-71.997-480.123c-8.376-55.695 30.853-101.253 87.183-101.253h437.74c56.3 0 95.56 45.558 87.235 101.263zM477.86 721.060v34.14c0 18.852 15.258 34.13 34.13 34.13s34.13-15.278 34.13-34.13v-34.15l-68.26 0.010zM395.52 652.78h82.34v-68.25h68.26v68.25h82.34c22.405 0 46.725-20.951 50.063-43.1l14.039-93.42h-361.103l13.998 93.389c3.338 22.18 27.668 43.131 50.063 43.131zM746.988 112.701c-4.301-4.997-11.131-6.042-16.128-6.042h-437.74c-4.997 0-11.827 1.044-16.128 6.042-4.301 4.956-4.332 11.899-3.574 16.835l47.77 318.464h381.604l47.8-318.474c0.727-4.895 0.696-11.827-3.604-16.824z" />
<glyph unicode="&#xe976;" glyph-name="Bacterium, virus, disease" d="M758.129 413.932c13.199-30.126 43.172-51.231 78.141-51.231 47.135 0 85.33 38.226 85.33 85.371 0 47.135-38.195 85.33-85.33 85.33-34.97 0-64.973-21.105-78.141-51.2h-78.899c-4.434 21.729-13.097 41.933-24.934 59.802l121.027 121.027c13.353-6.359 28.109-10.23 43.878-10.23 56.535 0 102.4 45.865 102.4 102.4s-45.865 102.4-102.4 102.4-102.4-45.865-102.4-102.4c0-15.8 3.871-30.525 10.271-43.899l-121.037-121.027c-17.9 11.858-38.103 20.531-59.904 24.965v78.899c30.095 13.199 51.2 43.172 51.2 78.141 0 47.124-38.226 85.32-85.33 85.32-47.135 0-85.33-38.195-85.33-85.33 0-35 21.064-64.942 51.2-78.141v-78.899c-21.801-4.434-42.004-13.097-59.873-24.965l-52.767 52.756c6.369 13.373 10.24 28.099 10.24 43.899 0 56.535-45.865 102.4-102.4 102.4s-102.4-45.865-102.4-102.4c0-56.535 45.865-102.4 102.4-102.4 15.8 0 30.525 3.871 43.899 10.24l52.756-52.767c-17.859-26.972-28.396-59.228-28.396-94.003 0-34.796 10.537-67.072 28.396-94.034l-120.996-121.027c-13.363 6.4-28.129 10.271-43.93 10.271-56.535 0-102.4-45.865-102.4-102.4s45.865-102.4 102.4-102.4 102.4 45.865 102.4 102.4c0 15.77-3.871 30.525-10.23 43.868l121.027 121.037c26.972-17.828 59.228-28.375 94.003-28.375s67.031 10.537 94.034 28.375l61.798-61.798c-11.96-20.296-19.302-43.704-19.302-68.966 0-75.407 61.143-136.54 136.54-136.54s136.53 61.133 136.53 136.53-61.133 136.54-136.53 136.54c-25.272 0-48.671-7.342-68.966-19.302l-61.798 61.798c11.827 17.93 20.5 38.164 24.934 59.955h78.889zM819.2 789.33c18.872 0 34.13-15.258 34.13-34.13s-15.258-34.13-34.13-34.13-34.13 15.258-34.13 34.13 15.258 34.13 34.13 34.13zM273.070 652.8c-18.872 0-34.14 15.268-34.14 34.13 0 18.872 15.268 34.14 34.14 34.14 18.862 0 34.13-15.268 34.13-34.14 0-18.862-15.268-34.13-34.13-34.13zM204.8 106.67c-18.872 0-34.13 15.258-34.13 34.13s15.258 34.13 34.13 34.13 34.13-15.258 34.13-34.13-15.258-34.13-34.13-34.13zM785.070 243.2c37.704 0 68.26-30.566 68.26-68.27s-30.556-68.26-68.26-68.26-68.27 30.556-68.27 68.26 30.566 68.27 68.27 68.27zM512 345.6c-56.535 0-102.4 45.834-102.4 102.4 0 56.535 45.865 102.4 102.4 102.4 56.566 0 102.4-45.865 102.4-102.4 0-56.566-45.834-102.4-102.4-102.4zM204.8 379.771c-37.704 0-68.27 30.597-68.27 68.301 0 37.663 30.566 68.229 68.27 68.229s68.27-30.566 68.27-68.229c0-37.704-30.566-68.301-68.27-68.301zM512 72.53c-37.673 0-68.27 30.566-68.27 68.27 0 37.734 30.597 68.27 68.27 68.27 37.734 0 68.27-30.536 68.27-68.27 0-37.704-30.536-68.27-68.27-68.27z" />
</font>
</defs>
</svg>
